.
Авторизация | Регистрация

torrentbox.xyz

» » БэдКомедиан / BadComedian (2011-2019) WEB-DLRip [H.264] (серии 1-140 из ХХХ) [MP4|736x480 / 1920x1080] (обновляемая) торрент скачать бесплатно


    БэдКомедиан / BadComedian (2011-2019) WEB-DLRip [H.264] (серии 1-140 из ХХХ) [MP4|736x480 / 1920x1080] (обновляемая) торрент скачать бесплатно

    Дата: 10-06-2019, 05:00 | .torrent скачали: 58

    БэдКомедиан / BadComedian (2011-2019) WEB-DLRip [H.264] (серии 1-140 из ХХХ) [MP4|736x480 / 1920x1080] (обновляемая)Производство: Россия
    Жанр: Комедия
    Режиссер: Евгений Баженов
    Ведущий: Евгений Баженов

    Описание

    BadComedian — псевдоним Евгения Баженова и название его основного канала на YouTube. Псевдоним является сочетанием имени персонажа Комедиант из фильма Хранители и слова плохой, подразумевающего, что Баженов считает свои обзоры более саркастическими, нежели юмористическими. Создаёт критические обзоры, в основном на российские фильмы, реже — на зарубежные.
    Раздача содержит все обзоры из плейлиста BadComedian + удалённые.
    Выложено по публичной просьбе самого автора контента, если необходимо дополнить релиз - в пм.

    Возраст: этот продукт не был классифицирован
    Продолжительность: ~62: 41: 21
    Качество видео: WEB-DLRip
    Язык озвучки: русский
    Субтитры: русские, украинские, английские (отдельными файлами)
    Видео: AVC/H.264, 736x480, ~490 Kbps/1280x720, ~750 Kbps/1920x1080, ~1140 Kbps,
    Аудио: AAC, 2 ch, 128 Kbps

    Общее
    Полное имя : BadComedianBadComedian - ЧЕРНОВИК (наш Доктор Стрэндж по Лукьяненко).mp4
    Формат : MPEG-4
    Профиль формата : Base Media
    Идентификатор кодека : isom (isom/iso2/avc1/mp41)
    Размер файла : 542 Мбайт
    Продолжительность : 59 м. 24 с.
    Общий поток : 1276 Кбит/сек
    Программа кодирования : Lavf56.40.101
    Видео
    Идентификатор : 1
    Формат : AVC
    Формат/Информация : Advanced Video Codec
    Профиль формата : High@L4
    Настройки формата : CABAC/3 Ref Frames
    Параметр CABAC формата : Да
    Параметр RefFrames формата : 3 кадра
    Идентификатор кодека : avc1
    Идентификатор кодека/Информация : Advanced Video Coding
    Продолжительность : 59 м. 24 с.
    Duration_FirstFrame : -40 мс.
    Битрейт : 1141 Кбит/сек
    Ширина : 1920 пикселей
    Высота : 1080 пикселей
    Соотношение сторон : 16: 9
    Режим частоты кадров : Переменный
    Частота кадров : 25, 000 кадров/сек
    Минимальная частота кадров : 25, 000 кадров/сек
    Максимальная частота кадров : 25, 098 кадров/сек
    Цветовое пространство : YUV
    Субдискретизация насыщенности : 4: 2: 0
    Битовая глубина : 8 бит
    Тип развёртки : Прогрессивная
    Бит/(Пиксели*Кадры) : 0.022
    Размер потока : 485 Мбайт (89%)
    Цветовой диапазон : Limited
    Основные цвета : BT.709
    Характеристики трансфера : BT.709
    Коэффициенты матрицы : BT.709
    Codec configuration box : avcC
    Аудио
    Идентификатор : 2
    Формат : AAC LC
    Формат/Информация : Advanced Audio Codec Low Complexity
    Идентификатор кодека : mp4a-40-2
    Продолжительность : 59 м. 24 с.
    Вид битрейта : Постоянный
    Битрейт : 128 Кбит/сек
    Каналы : 2 канала
    ChannelLayout : L R
    Частота : 44, 1 КГц
    Частота кадров : 43, 066 кадра/сек (1024 SPF)
    Метод сжатия : С потерями
    Размер потока : 54, 4 Мбайт (10%)
    Default : Да
    AlternateGroup/String : 1

    Общее
    Полное имя : BadComedianBadComedian - Фобос Клуб Страха (ужасы от Бондарчука).mp4
    Формат : MPEG-4
    Профиль формата : Base Media
    Идентификатор кодека : isom (isom/iso2/avc1/mp41)
    Размер файла : 65, 8 Мбайт
    Продолжительность : 10 м. 25 с.
    Общий поток : 883 Кбит/сек
    Программа кодирования : Lavf56.40.101
    Видео
    Идентификатор : 1
    Формат : AVC
    Формат/Информация : Advanced Video Codec
    Профиль формата : Main@L3.1
    Настройки формата : CABAC/3 Ref Frames
    Параметр CABAC формата : Да
    Параметр RefFrames формата : 3 кадра
    Идентификатор кодека : avc1
    Идентификатор кодека/Информация : Advanced Video Coding
    Продолжительность : 10 м. 25 с.
    Duration_FirstFrame : -33 мс.
    Битрейт : 749 Кбит/сек
    Ширина : 1280 пикселей
    Высота : 720 пикселей
    Соотношение сторон : 16: 9
    Режим частоты кадров : Переменный
    Частота кадров : 29, 970 (29970/1000) кадров/сек
    Минимальная частота кадров : 29, 970 кадров/сек
    Максимальная частота кадров : 29, 990 кадров/сек
    Цветовое пространство : YUV
    Субдискретизация насыщенности : 4: 2: 0
    Битовая глубина : 8 бит
    Тип развёртки : Прогрессивная
    Бит/(Пиксели*Кадры) : 0.027
    Размер потока : 55, 8 Мбайт (85%)
    Цветовой диапазон : Limited
    Основные цвета : BT.709
    Характеристики трансфера : BT.709
    Коэффициенты матрицы : BT.709
    Codec configuration box : avcC
    Аудио
    Идентификатор : 2
    Формат : AAC LC
    Формат/Информация : Advanced Audio Codec Low Complexity
    Идентификатор кодека : mp4a-40-2
    Продолжительность : 10 м. 25 с.
    Вид битрейта : Постоянный
    Битрейт : 126 Кбит/сек
    Каналы : 2 канала
    ChannelLayout : L R
    Частота : 44, 1 КГц
    Частота кадров : 43, 066 кадра/сек (1024 SPF)
    Метод сжатия : С потерями
    Размер потока : 9, 36 Мбайт (14%)
    Default : Да
    AlternateGroup/String : 1

    Общее
    Полное имя : BadComedianBadComedian - Индийский Кошмар на улице Вязов - Часть 1.mp4
    Формат : MPEG-4
    Профиль формата : Base Media
    Идентификатор кодека : isom (isom/iso2/avc1/mp41)
    Размер файла : 53, 9 Мбайт
    Продолжительность : 11 м. 58 с.
    Общий поток : 629 Кбит/сек
    Программа кодирования : Lavf56.40.101
    Видео
    Идентификатор : 1
    Формат : AVC
    Формат/Информация : Advanced Video Codec
    Профиль формата : Main@L3.1
    Настройки формата : CABAC/3 Ref Frames
    Параметр CABAC формата : Да
    Параметр RefFrames формата : 3 кадра
    Идентификатор кодека : avc1
    Идентификатор кодека/Информация : Advanced Video Coding
    Продолжительность : 11 м. 58 с.
    Duration_FirstFrame : -33 мс.
    Битрейт : 493 Кбит/сек
    Ширина : 736 пикселей
    Высота : 480 пикселей
    Соотношение сторон : 3: 2
    Режим частоты кадров : Переменный
    Частота кадров : 29, 970 (29970/1000) кадров/сек
    Минимальная частота кадров : 29, 970 кадров/сек
    Максимальная частота кадров : 30, 030 кадров/сек
    Цветовое пространство : YUV
    Субдискретизация насыщенности : 4: 2: 0
    Битовая глубина : 8 бит
    Тип развёртки : Прогрессивная
    Бит/(Пиксели*Кадры) : 0.047
    Размер потока : 42, 2 Мбайт (78%)
    Codec configuration box : avcC
    Аудио
    Идентификатор : 2
    Формат : AAC LC
    Формат/Информация : Advanced Audio Codec Low Complexity
    Идентификатор кодека : mp4a-40-2
    Продолжительность : 11 м. 58 с.
    Вид битрейта : Постоянный
    Битрейт : 128 Кбит/сек
    Каналы : 2 канала
    ChannelLayout : L R
    Частота : 44, 1 КГц
    Частота кадров : 43, 066 кадра/сек (1024 SPF)
    Метод сжатия : С потерями
    Размер потока : 11, 0 Мбайт (20%)
    Default : Да
    AlternateGroup/String : 1
    Скриншоты:



    Все одноименные релизы в Клубе
    Время раздачи: 24/7 (до появления первых 3-5 скачавших)


    БэдКомедиан/BadComedian (2011-2019) WEB-DLRip [H.264] (серии 1-140 из ХХХ) [MP4|736x480/1920x1080] (обновляемая)
    Рейтинг →
     (голосов: 1, оценка 3/5, голосовать можно 1 раз )

    Другие торренты по теме:



      Комментарии (0):

      Информация

      Информация

        Посетители, находящиеся в группе Гости, не могут оставлять комментарии в данной новости.

        ↓ Меню




        ↓ Опрос

        Вы добавили сайт в закладки?
        Да
        Нет


        Популярное