.
Авторизация | Регистрация

torrentbox.xyz

» » Правосудие Агаты / Prawo Agaty (2012) WEB-DL [H.264 / 720p-LQ] (сезон 1-7, серии 1-93 из 93) [MP4|1280x720] [PL] торрент скачать бесплатно


    Правосудие Агаты / Prawo Agaty (2012) WEB-DL [H.264 / 720p-LQ] (сезон 1-7, серии 1-93 из 93) [MP4|1280x720] [PL] торрент скачать бесплатно

    Дата: 19-06-2019, 05:00 | .torrent скачали: 5

    Правосудие Агаты / Prawo Agaty (2012) WEB-DL [H.264 / 720p-LQ] (сезон 1-7, серии 1-93 из 93) [MP4|1280x720] [PL]Производство: Польша/TVN
    Жанр: драма, комедия
    Режиссер: Maciej Migas, Patrick Yoka
    Актеры: Агнешка Дигант, Лешек Лихота, Михал Миколайчак, Дария Видавска, Томаш Кароляк, Малгожата Козуховска, Катажина Заваджка, Ignacy Sut, Каролина Коминек-Скуратович, Мацей Дыбовский и др.

    Описание

    Агата была директором юридического департамента в крупной страховой компании. В результате предательства близкого человека она потеряла работу, квартиру и крупную сумму денег. Теперь ей нужно найти силы заново построить свою профессиональную и личную жизнь. К счастью, подруга Агаты Дорота предлагает ей присоединиться к команде юристов, решивших арендовать офис и начать работать самостоятельно. Для Агаты это совершенно новый опыт. Люди, проблемы и обязанности будут кардинально отличаться от того, с чем ей приходилось сталкиваться раньше. Но, благодаря неиссякаемому оптимизму, чувству юмора, трудолюбию, поддержке друзей и неоспоримому интеллекту, Агата сможет пройти через все трудности и неловкие ситуации с улыбкой.

    Возраст: 16+ (зрителям, достигшим 16 лет)
    Продолжительность: ~ 00: 45: 00 серия
    Качество видео: WEB-DL
    Перевод: отсутствует
    Язык озвучки: польский
    Видео: AVC/H.264, 1280x720, ~2800 kbps
    Аудио: AAC, 2 ch, 128 kbps - польский

    General
    Complete name : Prawo.Agaty.S01.E01.mp4
    Format : MPEG-4
    Format profile : Base Media
    Codec ID : isom (isom/iso2/avc1/mp41)
    File size : 947 MiB
    Duration : 43 min 38 s
    Overall bit rate mode : Variable
    Overall bit rate : 3 033 kb/s
    Writing application : Lavf56.4.101
    Video
    ID : 1
    Format : AVC
    Format/Info : Advanced Video Codec
    Format profile : Baseline@L4.1
    Format settings : 2 Ref Frames
    Format settings, CABAC : No
    Format settings, Reference : 2 frames
    Format settings, GOP : M=1, N=50
    Codec ID : avc1
    Codec ID/Info : Advanced Video Coding
    Duration : 43 min 38 s
    Bit rate : 2 788 kb/s
    Width : 1 280 pixels
    Height : 720 pixels
    Display aspect ratio : 16: 9
    Frame rate mode : Constant
    Frame rate : 25.000 FPS
    Color space : YUV
    Chroma subsampling : 4: 2: 0
    Bit depth : 8 bits
    Scan type : Progressive
    Bits/(Pixel*Frame) : 0.121
    Stream size : 870 MiB (92%)
    Tagged date : UTC 2014-11-10 01: 52: 31
    Codec configuration box : avcC
    Audio
    ID : 2
    Format : AAC LC
    Format/Info : Advanced Audio Codec Low Complexity
    Codec ID : mp4a-40-2
    Duration : 43 min 38 s
    Bit rate mode : Variable
    Bit rate : 128 kb/s
    Maximum bit rate : 131 kb/s
    Channel(s) : 2 channels
    Channel layout : L R
    Sampling rate : 48.0 kHz
    Frame rate : 46.875 FPS (1024 SPF)
    Compression mode : Lossy
    Stream size : 39.9 MiB (4%)
    Default : Yes
    Alternate group : 1
    Tagged date : UTC 2014-11-10 01: 52: 31
    Other #1
    ID : 65536
    Type : Hint
    Format : RTP
    Codec ID : rtp
    Duration : 43 min 38 s
    Encoded date : UTC 2014-11-10 01: 52: 22
    Tagged date : UTC 2014-11-10 01: 52: 31
    Other #2
    ID : 65537
    Type : Hint
    Format : RTP
    Codec ID : rtp
    Duration : 43 min 38 s
    Bit rate mode : Variable
    Encoded date : UTC 2014-11-10 01: 52: 28
    Tagged date : UTC 2014-11-10 01: 52: 31
    Скриншоты:


    Все одноименные релизы в Клубе
    Время раздачи: с 09: 00 до 18: 00 (до появления первых 3-5 скачавших)


    Правосудие Агаты/Prawo Agaty (2012) WEB-DL [H.264/720p-LQ] (сезон 1-7, серии 1-93 из 93) [MP4|1280x720] [PL]
    Рейтинг →
     (голосов: 1, оценка 4/5, голосовать можно 1 раз )

    Другие торренты по теме:

  • Правосудие Агаты / Prawo Agaty (2012) SATRip (сезон 1-2, серии 1-28 из 28) Много ТВ


    • Комментарии (0):

      Информация

      Информация

        Посетители, находящиеся в группе Гости, не могут оставлять комментарии в данной новости.

        ↓ Меню




        ↓ Опрос

        Вы добавили сайт в закладки?
        Да
        Нет


        Популярное