.
Авторизация | Регистрация

torrentbox.xyz

» » Самолет уходит в 9 (1960) TVRip [H.264] [MP4|688x400] торрент скачать бесплатно


    Самолет уходит в 9 (1960) TVRip [H.264] [MP4|688x400] торрент скачать бесплатно

    Дата: 22-06-2019, 05:01 | .torrent скачали: 1

    Самолет уходит в 9 (1960) TVRip [H.264] [MP4|688x400]Производство: СССР, киностудия им. А. Довженко
    Жанр: Мелодрама
    Режиссер: Юрий (Георгий) Лысенко
    Актеры: Сильвия Сергейчикова, Анатолий Федоринов, Юрий Боголюбов, Наташа Галян-Никольская, Анна Николаева, Константин Артеменко, Полина (Пелагея) Куманченко, Артем Тарский, Владимир Божко, Тамара Алёшина, Алла Ролик

    Описание

    Нелегко складывалась судьба Любы. Оставшись сиротой в войну, она бросила школу и пошла работать. Человек, которого она любила, оставил ее с дочкой на руках. Люба работает официанткой, в свободное время встречается с Сергеем, который не хочет жениться на Любе из-за дочери. Закончив первый класс, Леночка, дочь Любы приносит домой награду за хорошую учебу, и это побуждает Любу пойти в вечернюю школу. В учебе ей помогает инженер-монтажник Долина, знакомство с которым пробуждает все лучшее в душе Любы. Так начинается их любовь. А когда заканчивается строительство и Долине надо уезжать, то Люба и Леночка едут вместе с ним.

    Возраст: 12+ (зрителям, достигшим 12 лет)
    Продолжительность: 01: 26: 44
    Качество видео: TVRip
    Субтитры: отсутствуют
    Видео: AVC/H.264, 688x400, ~1547 Kbps
    Аудио: AAC, 2 ch, 192 Kbps

    Общее
    Полное имя : U: Самолет уходит в 9 (1960) TVRip.mp4
    Формат : MPEG-4
    Профиль формата : JVT
    Идентификатор кодека : avc1 (avc1/mp42)
    Размер файла : 1, 06 Гбайт
    Продолжительность : 1 ч. 26 м.
    Режим общего битрейта : Переменный
    Общий поток : 1751 Кбит/сек
    Дата кодирования : UTC 2016-05-31 22: 29: 10
    Дата пометки : UTC 2016-05-31 22: 29: 10
    Видео
    Идентификатор : 1
    Формат : AVC
    Формат/Информация : Advanced Video Codec
    Профиль формата : Main@L3.2
    Настройки формата : CABAC/2 Ref Frames
    Параметр CABAC формата : Да
    Параметр RefFrames формата : 2 кадра
    Параметр GOP формата : M=3, N=30
    Идентификатор кодека : avc1
    Идентификатор кодека/Информация : Advanced Video Coding
    Продолжительность : 1 ч. 26 м.
    Вид битрейта : Переменный
    Битрейт : 1547 Кбит/сек
    Максимальный битрейт : 17, 0 Мбит/сек
    Ширина : 688 пикселей
    Высота : 400 пикселей
    Соотношение сторон : 1, 720
    Режим частоты кадров : Постоянный
    Частота кадров : 25, 000 кадров/сек
    Цветовое пространство : YUV
    Субдискретизация насыщенности : 4: 2: 0
    Битовая глубина : 8 бит
    Тип развёртки : Прогрессивная
    Бит/(Пиксели*Кадры) : 0.225
    Размер потока : 960 Мбайт (88%)
    Язык : English
    Дата кодирования : UTC 2016-05-31 22: 29: 10
    Дата пометки : UTC 2016-05-31 22: 29: 10
    Аудио
    Идентификатор : 2
    Формат : AAC
    Формат/Информация : Advanced Audio Codec
    Профиль формата : LC
    Идентификатор кодека : mp4a-40-2
    Продолжительность : 1 ч. 26 м.
    Продолжительность оригинала : 1 ч. 26 м.
    Вид битрейта : Постоянный
    Битрейт : 192 Кбит/сек
    Каналы : 2 канала
    Расположение каналов : Front: L R
    Частота : 48, 0 КГц
    Частота кадров : 46, 875 кадров/сек (1024 SPF)
    Метод сжатия : С потерями
    Размер потока : 119 Мбайт (11%)
    Размер потока оригинала : 119 Мбайт (11%)
    Язык : English
    Дата кодирования : UTC 2016-05-31 22: 29: 10
    Дата пометки : UTC 2016-05-31 22: 29: 10
    Скриншоты:




    Все одноименные релизы в Клубе
    Время раздачи: С 18: 00 до 23: 00 (до появления первых 3-5 скачавших)


    Самолет уходит в 9 (1960) TVRip [H.264] [MP4|688x400]
    Рейтинг →
     (голосов: 1, оценка 4/5, голосовать можно 1 раз )

    Другие торренты по теме:

  • Самолет президента / Air Force One (1997) BDRip
  • Самолет президента / Air Force One (1997) BDRip [H.264 / 1080p-LQ]
  • Самолет президента / Air Force One (1997) BDRip [1080p] скачать через торрент бесплатно
  • Андрей Харук | Ненавистная "Рама" Fw 189. Лучший самолет-разведчик Второй Мировой (2011) [PDF]
  • Самолет президента / Air Force One (1997) BDRip [H.264 / 720p]
  • Рашит Сайфутдинов | Целевой трафик 2.0 Самолет (2016) WEBRip
  • Владимир Кунин | Пилот первого класса. Самолет (2015) [MP3]
  • Олег Растренин | Советское авиационное вооружение. Самолет против танка (2017) [PDF]


    • Комментарии (0):

      Информация

      Информация

        Посетители, находящиеся в группе Гости, не могут оставлять комментарии в данной новости.

        ↓ Меню




        ↓ Опрос

        Вы добавили сайт в закладки?
        Да
        Нет


        Популярное