.
Авторизация | Регистрация

torrentbox.xyz

» » Сита и Рама / Siya ke Ram (2015-2016) WEB-DLRip [H.264] (сезон 1, серии 1-304 из 304) [MP4|640x360-960x540] Кондор торрент скачать бесплатно


    Сита и Рама / Siya ke Ram (2015-2016) WEB-DLRip [H.264] (сезон 1, серии 1-304 из 304) [MP4|640x360-960x540] Кондор торрент скачать бесплатно

    Дата: 20-07-2019, 05:00 | .torrent скачали: 28

    Сита и Рама / Siya ke Ram (2015-2016) WEB-DLRip [H.264] (сезон 1, серии 1-304 из 304) [MP4|640x360-960x540] КондорПроизводство: Индия
    Жанр: история, мелодрама, индийский эпос
    Режиссер: Дармеш Шах, Никхил Синха
    Актеры: Мадиракши Мандл, Ашиш Шарма, Каран Сучак, Хемант Чаудхари, Дж. Картик, Даниш Ахтар, Далип Тахил, Снигдха Аколкар, Груша Капур, Сампада Вазе

    Описание

    Индия, Царство Видеха. Правитель Джанака не имеет детей, о чем переживает вместе с женой. Также в царстве за 12 лет не упало ни капли дождя. Посоветовавшись с гуру, правитель выливает плуг из чистого золота и начинает пахать иссохшую землю. Вскоре Джанака находит в земле корзинку с младенцем, и с первым вздохом Ситы на землю проливается дождь.
    Эта история о любви Ситы и Рамы глазами Ситы. Истоки событий берут свое начало еще с древнего эпоса Рамаяна. С тех пор легенда неоднократно пересказывалась разными авторами. В этот же раз Вам на рассмотрение представленное очередное видение. Так ли это было, или как то иначе каждый решает сам для себя. По сюжету изображена жизнь двух влюбленных. Показаны испытания и трудности с которыми они столкнулись на своем пути. Стоит отметить, что особая роль отведена судьбе во всем происходящем...
    Концепция сериала: Как Сита воспринимала и любила Раму; это рассказ о Раме глазами Ситы. Сериал снимается по мотивам эпоса Рамаяна.

    Продолжительность: ~ 00: 21: 00 (110: 44: 39)
    Перевод: Двуголосый профессиональный
    Автор перевода: Студия Кондор (Канал Культура)
    Субтитры: Русские (hardsub на песни)
    Серии : 1-154 (29, 30, 35, 43, 44, 45, 51, 52, 57, 58, 63, 71, 72, 81, 82, 100, 115, 116, 127, 143, 144 ), 192, 196
    Сэмпл :
    Видео : AVC, 854x470/480, ~860 Kbps
    Аудио : AAC, 2 ch, 160 Kbps
    Общее
    Полное имя : SKR_Condor_RusK_001.mp4
    Формат : MPEG-4
    Профиль формата : Base Media
    Идентификатор кодека : isom (isom/iso2/avc1/mp41)
    Размер файла : 400 Мбайт
    Продолжительность : 54 м. 11 с.
    Общий поток : 1033 Кбит/сек
    Программа кодирования : Lavf57.83.100
    Видео
    Идентификатор : 1
    Формат : AVC
    Формат/Информация : Advanced Video Codec
    Профиль формата : High@L3
    Настройки формата : CABAC/4 Ref Frames
    Параметр CABAC формата : Да
    Параметр RefFrames формата : 4 кадра
    Идентификатор кодека : avc1
    Идентификатор кодека/Информация : Advanced Video Coding
    Продолжительность : 54 м. 11 с.
    Битрейт : 868 Кбит/сек
    Ширина : 854 пикселя
    Высота : 470 пикселей
    Соотношение сторон : 16: 9
    Режим частоты кадров : Постоянный
    Частота кадров : 25, 000 кадров/сек
    Цветовое пространство : YUV
    Субдискретизация насыщенности : 4: 2: 0
    Битовая глубина : 8 бит
    Тип развёртки : Прогрессивная
    Бит/(Пиксели*Кадры) : 0.087
    Размер потока : 337 Мбайт (84%)
    Codec configuration box : avcC
    Аудио
    Идентификатор : 2
    Формат : AAC LC
    Формат/Информация : Advanced Audio Codec Low Complexity
    Идентификатор кодека : mp4a-40-2
    Продолжительность : 54 м. 11 с.
    Вид битрейта : Постоянный
    Битрейт : 159 Кбит/сек
    Каналы : 2 канала
    Channel layout : L R
    Частота : 44, 1 КГц
    Частота кадров : 43, 066 кадра/сек (1024 SPF)
    Метод сжатия : С потерями
    Размер потока : 61, 6 Мбайт (15%)
    Default : Да
    AlternateGroup/String : 1


    Сита и Рама/Siya ke Ram (2015-2016) WEB-DLRip [H.264] (сезон 1, серии 1-304 из 304) [MP4|640x360-960x540] Кондор
    Рейтинг →
     (голосов: 1, оценка 4/5, голосовать можно 1 раз )

    Другие торренты по теме:

  • Сита и Рама / Рамаяна / Siya ke Ram (2015) HDTVRip [H.264] (Серии 1-3 из 300) [MP4|1920x1080] скачать через торрент бесплатно
  • Сита и Рама / Рамаяна / Siya ke Ram (2015) HDTVRip [H.264] (Серии 1-54 из 300) [MP4|1920x1080]
  • Сита и Рама / Рамаяна / Siya ke Ram (2015) HDTVRip [H.264] (Серии 1-127 из 300) [MP4|1920x1080]


    • Комментарии (0):

      Информация

      Информация

        Посетители, находящиеся в группе Гости, не могут оставлять комментарии в данной новости.

        ↓ Меню




        ↓ Опрос

        Вы добавили сайт в закладки?
        Да
        Нет


        Популярное