.
Авторизация | Регистрация

torrentbox.xyz

» » Ксеногенезис / Xenogenesis (1978) Screener [H.264] [EN / Ru Sub] [MP4|320x240] [PR] торрент скачать бесплатно


    Ксеногенезис / Xenogenesis (1978) Screener [H.264] [EN / Ru Sub] [MP4|320x240] [PR] торрент скачать бесплатно

    Дата: 24-08-2019, 05:00 | .torrent скачали: 1

    Ксеногенезис / Xenogenesis (1978) Screener [H.264] [EN / Ru Sub] [MP4|320x240] [PR]Производство: США/Xenogen Production
    Жанр: Короткометражка, фантастика
    Режиссер: Джеймс Кэмерон, Рэндолл Фрайкс
    Актеры: Уильям Уишер мл., Маргарет Андьел

    Описание

    Герои Радж и Лори обнаруживают огромный, многоуровневый заброшенный космический корабль. Радж отправляется на разведку, но никого не находит и предполагает, что на корабле все вымерли, возможно уже тысячи лет назад. Но вдруг появляется огромный боевой робот, нападающий на него. Лори ничего не остаётся делать, как прийти на помощь.

    Продолжительность: 00: 11: 57
    Качество видео: Screener
    Перевод: Отсутствует
    Язык озвучки: Английский
    Субтитры: Русские (неотключаемые)
    Видео: AVC/H.264, 320x240, 260 Kbps
    Аудио: AAC, 2 ch, 107 Kbps

    Общее
    Полное имя : X: WtorrentXenogenesis.1978.ENXenogenesis.1978.EN.mp4
    Формат : MPEG-4
    Профиль формата : Base Media
    Идентификатор кодека : isom (isom/avc1)
    Размер файла : 31, 7 Мбайт
    Продолжительность : 11 м. 57 с.
    Режим общего битрейта : Переменный
    Общий поток : 371 Кбит/сек
    Дата кодирования : UTC 2009-12-06 18: 07: 16
    Дата пометки : UTC 2009-12-07 18: 07: 17
    Видео
    Идентификатор : 1
    Формат : AVC
    Формат/Информация : Advanced Video Codec
    Профиль формата : High@L3.1
    Настройки формата : CABAC/4 Ref Frames
    Параметр CABAC формата : Да
    Параметр RefFrames формата : 4 кадра
    Идентификатор кодека : avc1
    Идентификатор кодека/Информация : Advanced Video Coding
    Продолжительность : 11 м. 57 с.
    Битрейт : 260 Кбит/сек
    Максимальный битрейт : 597 Кбит/сек
    Ширина : 320 пикселей
    Высота : 240 пикселей
    Соотношение сторон : 4: 3
    Режим частоты кадров : Постоянный
    Частота кадров : 29, 970 (30000/1001) кадров/сек
    Частота кадров в оригинале : 29, 970 (29970/1000) кадров/сек
    Цветовое пространство : YUV
    Субдискретизация насыщенности : 4: 2: 0
    Битовая глубина : 8 бит
    Тип развёртки : Прогрессивная
    Бит/(Пиксели*Кадры) : 0.113
    Размер потока : 22, 3 Мбайт (70%)
    Библиотека кодирования : x264 core 72 r1217 5e9ae4c
    Настройки программы : cabac=1/ref=4/deblock=1: 0: 0/analyse=0x3: 0x113/me=hex/subme=7/psy=1/psy_rd=1.0: 0.0/mixed_ref=1/me_range=16/chroma_me=1/trellis=1/8x8dct=1/cqm=0/deadzone=21, 11/chroma_qp_offset=-2/threads=8/nr=0/decimate=1/mbaff=0/bframes=4/b_pyramid=0/b_adapt=1/b_bias=0/direct=3/wpredb=1/keyint=90/keyint_min=30/scenecut=40/rc_lookahead=40/rc=2pass/mbtree=1/bitrate=260/ratetol=1.0/qcomp=0.60/qpmin=10/qpmax=51/qpstep=4/cplxblur=20.0/qblur=0.5/vbv_maxrate=390/vbv_bufsize=1300/ip_ratio=1.40/aq=1: 1.00
    Дата кодирования : UTC 2009-12-06 18: 07: 16
    Дата пометки : UTC 2009-12-06 18: 07: 17
    Codec configuration box : avcC
    Аудио
    Идентификатор : 2
    Формат : AAC LC
    Формат/Информация : Advanced Audio Codec Low Complexity
    Идентификатор кодека : mp4a-40-2
    Продолжительность : 11 м. 57 с.
    Вид битрейта : Переменный
    Битрейт : 107 Кбит/сек
    Максимальный битрейт : 140 Кбит/сек
    Каналы : 2 канала
    Channel layout : L R
    Частота : 44, 1 КГц
    Частота кадров : 43, 066 кадра/сек (1024 SPF)
    Метод сжатия : С потерями
    Размер потока : 9, 15 Мбайт (29%)
    Дата кодирования : UTC 2009-12-06 18: 07: 16
    Дата пометки : UTC 2009-12-06 18: 07: 17


    Ксеногенезис/Xenogenesis (1978) Screener [H.264] [EN/Ru Sub] [MP4|320x240] [PR]
    Рейтинг →
     (голосов: 1, оценка 3/5, голосовать можно 1 раз )

    Другие торренты по теме:



      Комментарии (0):

      Информация

      Информация

        Посетители, находящиеся в группе Гости, не могут оставлять комментарии в данной новости.

        ↓ Меню




        ↓ Опрос

        Вы добавили сайт в закладки?
        Да
        Нет


        Популярное