.
Авторизация | Регистрация
torrentbox.xyz
» » Три кота (2018) WEB-DLRip [H.264 / 720p-LQ] (сезон 3, серии 105-106 из 156) торрент скачать бесплатно


    Три кота (2018) WEB-DLRip [H.264 / 720p-LQ] (сезон 3, серии 105-106 из 156) торрент скачать бесплатно

    Дата: 25-11-2018, 05:00 | .torrent скачали: 909

    Три кота (2018) WEB-DLRip [H.264 / 720p-LQ] (сезон 3, серии 105-106 из 156)Год выпуска: 2018
    Жанр: Детский, Обучающий
    Производство: Россия/Сту­дия Мет­ра­филь­мс
    Режиссер: Дмитрий Высоцкий
    Персонажи: Папа-кот, Мама-кошка, Коржик, Компот, Карамелька, Изю­м...

    Описание

    В ос­но­ве сю­жета муль­тсе­ри­ала Три ко­та по-преж­не­му ле­жат прик­лю­чения Кор­жи­ка, Ком­по­та и Ка­рамель­ки, их ро­дите­лей и дру­зей. В треть­ем се­зоне ге­ро­ев ожи­да­ют но­вые зах­ва­тыва­ющие за­дач­ки, ко­тята бу­дут ча­ще по­яв­лять­ся в но­вых, не­из­ве­дан­ных мес­тах и поз­на­комят­ся с но­выми пер­со­нажами. Ко­тята изу­чат раз­ные ви­ды де­ятель­нос­ти, про­фес­сии и тра­диции раз­ных на­родов и стран. Так­же, пла­ниру­ет­ся ши­ре рас­крыть ха­рак­те­ры ос­новных ге­ро­ев, что­бы пок­лонни­ки муль­тсе­ри­ала уз­на­ли их еще луч­ше. Нап­ри­мер, по прось­бам зри­телей, вый­дет боль­ше ис­то­рий про ко­тен­ка-ху­дож­ни­ка Изю­ма. В пре­дыду­щих двух се­зонах он по­яв­лялся эпи­зоди­чес­ки и выз­вал мас­су воп­ро­сов и же­лание бли­же поз­на­комить­ся с жел­тым ко­тиком.

    Возраст: 0+ (для любой зрительской аудитории)
    Рейтинг MPAA: G (нет возрастных ограничений)
    Релиз от: Natasha77
    Продолжительность: ~00: 05: 00 серия
    Качество видео: WEB-DLRip
    Перевод: Не требуется (Русский)
    Субтитры: Отсутствуют
    Видео: AVC/H.264, 1280x720, ~3500 kbps
    Аудио: Русский: AAC, 2 ch, 128 kbps Код: выделить всеОбщее
    Уникальный идентификатор : 19450664831431811507284796726119633459 (0xEA20FD10EA3660C4EAA5BE2FC7A1233)
    Полное имя : C:105_Снежный домик.mkv
    Формат : Matroska
    Версия формата : Version 4
    Размер файла : 133 Мбайт
    Продолжительность : 5 м. 9 с.
    Общий поток : 3618 Кбит/сек
    Дата кодирования : UTC 2018-11-24 11:35:41
    Программа кодирования : mkvmerge v28.2.0 (\'The Awakening\') 32-bit
    Библиотека кодирования : libebml v1.3.6 + libmatroska v1.4.9
    Видео
    Идентификатор : 1
    Формат : AVC
    Формат/Информация : Advanced Video Codec
    Профиль формата :High@L4.1
    Настройки формата : CABAC/5 Ref Frames
    Параметр CABAC формата : Да
    Параметр RefFrames формата : 5 кадров
    Идентификатор кодека : V_MPEG4/ISO/AVC
    Продолжительность : 5 м. 9 с.
    Битрейт : 3500 Кбит/сек
    Ширина : 1280 пикселей
    Высота : 720 пикселей
    Соотношение сторон : 16:9
    Режим частоты кадров : Постоянный
    Частота кадров : 25, 000 кадров/сек
    Цветовое пространство : YUV
    Субдискретизация насыщенности : 4:2:0
    Битовая глубина : 8 бит
    Тип развёртки : Прогрессивная
    Бит/(Пиксели*Кадры) : 0.152
    Размер потока : 129 Мбайт (96%)
    Библиотека кодирования : x264 core 148
    Настройки программы : cabac=1/ref=5/deblock=1:0:0/analyse=0x3:0x113/me=hex/subme=8/psy=1/psy_rd=1.00:0.00/mixed_ref=1/me_range=16/chroma_me=1/trellis=2/8x8dct=1/cqm=0/deadzone=21, 11/fast_pskip=1/chroma_qp_offset=-2/threads=22/lookahead_threads=3/sliced_threads=0/nr=0/decimate=1/interlaced=0/bluray_compat=0/constrained_intra=0/bframes=3/b_pyramid=2/b_adapt=1/b_bias=0/direct=3/weightb=1/open_gop=0/weightp=2/keyint=250/keyint_min=25/scenecut=0/intra_refresh=0/rc_lookahead=50/rc=abr/mbtree=1/bitrate=3500/ratetol=1.0/qcomp=0.60/qpmin=0/qpmax=69/qpstep=4/ip_ratio=1.40/aq=1:1.00
    Default : Да
    Forced : Нет
    Аудио
    Идентификатор : 2
    Формат : AAC LC
    Формат/Информация : Advanced Audio Codec Low Complexity
    Идентификатор кодека : A_AAC-2
    Продолжительность : 5 м. 9 с.
    Битрейт : 128 Кбит/сек
    Каналы : 2 канала
    Channel layout : L R
    Частота : 44, 1 КГц
    Частота кадров : 43, 066 кадра/сек (1024 SPF)
    Метод сжатия : С потерями
    Задержка видео : -80 мс.
    Размер потока : 4, 72 Мбайт (4%)
    Default : Да
    Forced : НетГлавные герои:
    Компот — самый старший котёнок в семье. Ходит в школу. Любит шахматы и другие игры на логику. Также обожает вкусно поесть. Носит зелёный костюм и шапку.
    Карамелька — самый младший член семьи. Коронная фраза - Я знаю, что надо делать!. Имеет красный бант и красное платье.
    Коржик — самый активный член семьи. Любит бегать, прыгать и веселиться. Иногда делает такие вещи, что из них приходится всей семье выбираться. Одет в форму морячка.
    Второстепенные персонажи:
    Мама (Кисуля) — заботливая и энергичная. Часто подшучивает над своим мужем и детьми, но при этом очень их любит. Работает дизайнером детской одежды. Занимается фитнесом.
    Папа (Котя) — очень добрый и немного рассеянный. Работает на кондитерской фабрике. Практически все свободное время проводит вместе с детьми. Создал плакат своего кафе Три кота.
    Лапочка — кошечка-принцесса. Любит красоту и хочет, чтоб всё было красиво. Её мама отлично играет на пианино.
    Гоня — добрый и хороший. Любит инопланетян. Также иногда зависает в своём смартфоне.
    Нудик (от слова зануда) — тихий и застенчевый котёнок. Он меланхолик. Любит клоунов и мечтает им стать.
    Сажик — фантазёр, любитель ужасов и страшилок. Больше всего ему нравятся вампиры.
    Шуруп — умник, имеет проблемы со зрением и носит очки. Ему нравится что-то постоянно делать. Его папа работает на пожарной станции.
    Горчица — кошечка, самая умная из котят, и немного агрессивная. Любит кексы и эклеры. Несмотря на вредность, она готова поиграть с друзьями и показать им что-то новое.
    Бантик — котёнок, очень добрый, любит игры на скрипке и спектакли.
    Дедушка — отец папы. Живёт и работает на маяке. Совершил увлекательное путешествие. Любит заниматься дайвингом.
    Бабушка — мать мамы. Очень добрая, но слишком заботливая. Имеет свой огород и фруктовый сад. Обожает стрельбу из лука и бадминтон. Знает множество интересных игр.
    Изюм — котёнок жёлтой масти. Он очень любит рисовать.
    Дантист — лечит зубы в клинике. Первый и единственный раз появляется в серии Молочный зуб.
    Тётя Корица — сестра мамы. Добрая, имеет хвостик из волос на макушке.
    Бублик — маленький котёнок. Двоюродный брат котят. Любит играть с детскими безделушками.
    Кекс — дядя котят и брат их папы. Талантливый Актер.

    Онлайн видео Три кота (2018) WEB-DLRip [H.264



    Три кота (2018) WEB-DLRip [H.264/720p-LQ] (сезон 3, серии 105-106 из 156)
    Рейтинг →
     (голосов: 1, оценка 3/5, голосовать можно 1 раз )

    Другие торренты по теме:



      Комментарии (0):

      Информация

      Информация

        Посетители, находящиеся в группе Гости, не могут оставлять комментарии в данной новости.

        ↓ Меню




        ↓ Опрос

        Вы добавили сайт в закладки?
        Да
        Нет


        Популярное

        Футурама / Futurama (1999-2013) DVDRip (7 Сезонов, 140 серии) скачать через торрент бесплатно

        (скачиваний: 95)
        Малышарики (2015-2019) WEB-DL [H.264 / 1080p-LQ] (серии 1-154 из 208) [Обновляемая]

        (скачиваний: 95)
        Жила-была царевна (2015-2019) WEB-DLRip [H.264 / 720p-LQ] (сезон 1, серии 1-18 из 26) [Обновляемая]

        (скачиваний: 53)
        Рик и Морти / Rick and Morty (2015) WEB-DL [H.264 / 1080p] (Сезон 2, серии 1-10 из 10) Сыендук [EN / RU Sub] скачать через торрент бесплатно

        (скачиваний: 51)
        Металионы / Metalions (2018-2019) WEB-DLRip [H.264 / 720p-LQ] (сезон 1, серии 1-52 из 52) [Обновляемая]

        (скачиваний: 46)
        В гостях у сказки (сборник 56 фильмов) (1939-2009) DVDRip

        (скачиваний: 38)
        Рик и Морти / Rick and Morty (2013) BDRip [H.264 / 1080p] (Сезон 1, серии 1-11 из 11) Сыендук [EN Sub] скачать через торрент бесплатно

        (скачиваний: 37)
        Три кота (2018) WEB-DLRip [H.264 / 720p-LQ] (сезон 3, серии 105-106 из 156)

        (скачиваний: 34)
        Рик и Морти / Rick and Morty (2013) BDRip [H.264 / 720p-LQ] (сезон 1, серии 1-11 из 11) Сыендук

        (скачиваний: 30)
        Королевская академия / Regal Academy (2016) SATRip [H.264] (Сезон 1, 26 серий из 26) [UKR]

        (скачиваний: 25)