.
Авторизация | Регистрация

torrentbox.xyz

» » Назад в будущее / Back to the Future: The Animated Series (1991-1993) SATRip (Сезон 1-2, серии 1-26 из 26) торрент скачать бесплатно


    Назад в будущее / Back to the Future: The Animated Series (1991-1993) SATRip (Сезон 1-2, серии 1-26 из 26) торрент скачать бесплатно

    Дата: 17-09-2019, 05:00 | .torrent скачали: 0

    Назад в будущее / Back to the Future: The Animated Series (1991-1993) SATRip (Сезон 1-2, серии 1-26 из 26)Производство: США/Amblimation, Amblin Entertainment, Amblin Television
    Жанр: мультфильм, фантастика, приключения, семейный
    Режиссер: Пейтон Рид, Боб Гейл, Джон Хэйс

    Актеры
    Дэвид Кауфман, Дэн Кастелланета, Билл Най, Кристофер Ллойд, Мэри Стинберген, Джошуа Китон, Кэти Кавадини, Томас Ф. Уилсон, Дэнни Манн, Хэл Райл и др.

    Описание

    После событий фильма Назад в будущее 3, Док Эмметт Браун обосновался вместе со своей семьёй в городке Хилл-Вэлли. На дворе 1991 год, доктор Эмметт Браун восстановил ДэЛориан после крушения, потому что он удобней для путешествий во времени, чем Паровоз Времени, которым, тем не менее, Брауны и Марти также часто пользуются. Все герои живут своей жизнью и подчас сталкиваются с обыденными сложностями. В эти моменты в их жизни начинает участвовать время, что преподносит Марти и семье Дока самые удивительные приключения.

    Релиз от: ExKinoRay
    Продолжительность: ~ 00: 22: 00 серия
    Качество видео: SATRip
    Перевод: Дублированный (НТВ, СТС, 1+1)
    Субтитры: отсутствуют
    Реклама: отсутствует
    Видео: Xvid, 720х544, ~1850 kbps
    Аудио 1: MP3, 2 ch, 128 kbps - русский (НТВ)
    Аудио 2: MP3, 2 ch, 128 kbps - русский (СТС)
    Аудио 2: MP3, 2 ch, 128 kbps - украинский (1+1)

    General
    Complete name : 01. Brothers.SATRip.avi
    Format : AVI
    Format/Info : Audio Video Interleave
    File size : 343 MiB
    Duration : 22 min 37 s
    Overall bit rate : 2 120 kb/s
    Writing application : VirtualDubMod 1.5.10.3 |www.virtualdub-fr.org|| (build 2550/release)
    Writing library : VirtualDubMod build 2550/release
    Video
    ID : 0
    Format : MPEG-4 Visual
    Format profile : Advanced Simple@L5
    Format settings : BVOP2
    Format settings, BVOP : 2
    Format settings, QPel : No
    Format settings, GMC : No warppoints
    Format settings, Matrix : Default (H.263)
    Codec ID : XVID
    Codec ID/Hint : XviD
    Duration : 22 min 37 s
    Bit rate : 1 850 kb/s
    Width : 720 pixels
    Height : 544 pixels
    Display aspect ratio : 4: 3
    Frame rate : 25.000 FPS
    Color space : YUV
    Chroma subsampling : 4: 2: 0
    Bit depth : 8 bits
    Scan type : Progressive
    Compression mode : Lossy
    Bits/(Pixel*Frame) : 0.189
    Stream size : 299 MiB (87%)
    Writing library : XviD 73
    Audio #1
    ID : 1
    Format : MPEG Audio
    Format version : Version 1
    Format profile : Layer 3
    Format settings : Joint stereo/MS Stereo
    Codec ID : 55
    Codec ID/Hint : MP3
    Duration : 22 min 37 s
    Bit rate mode : Constant
    Bit rate : 128 kb/s
    Channel(s) : 2 channels
    Sampling rate : 48.0 kHz
    Frame rate : 41.667 FPS (1152 SPF)
    Compression mode : Lossy
    Stream size : 20.7 MiB (6%)
    Alignment : Aligned on interleaves
    Interleave, duration : 40 ms (1.00 video frame)
    Interleave, preload duratio : 504 ms
    Writing library : LAME3.99r
    Encoding settings : -m j -V 4 -q 2 -lowpass 17 -b 128
    Audio #2
    ID : 2
    Format : MPEG Audio
    Format version : Version 1
    Format profile : Layer 3
    Format settings : Joint stereo/MS Stereo
    Codec ID : 55
    Codec ID/Hint : MP3
    Duration : 22 min 37 s
    Bit rate mode : Constant
    Bit rate : 128 kb/s
    Channel(s) : 2 channels
    Sampling rate : 48.0 kHz
    Frame rate : 41.667 FPS (1152 SPF)
    Compression mode : Lossy
    Stream size : 20.7 MiB (6%)
    Alignment : Aligned on interleaves
    Interleave, duration : 40 ms (1.00 video frame)
    Interleave, preload duratio : 504 ms
    Writing library : LAME3.99r
    Encoding settings : -m j -V 4 -q 2 -lowpass 17 -b 128
    -------------------------------------------------------------------
    General
    Complete name : 14. Mac the Black.SATRip.avi
    Format : AVI
    Format/Info : Audio Video Interleave
    File size : 346 MiB
    Duration : 21 min 30 s
    Overall bit rate : 2 248 kb/s
    Writing application : VirtualDubMod 1.5.10.3 |www.virtualdub-fr.org|| (build 2550/release)
    Writing library : VirtualDubMod build 2550/release
    Video
    ID : 0
    Format : MPEG-4 Visual
    Format profile : Advanced Simple@L5
    Format settings : BVOP2
    Format settings, BVOP : 2
    Format settings, QPel : No
    Format settings, GMC : No warppoints
    Format settings, Matrix : Default (H.263)
    Codec ID : XVID
    Codec ID/Hint : XviD
    Duration : 21 min 30 s
    Bit rate : 1 845 kb/s
    Width : 720 pixels
    Height : 544 pixels
    Display aspect ratio : 4: 3
    Frame rate : 25.000 FPS
    Color space : YUV
    Chroma subsampling : 4: 2: 0
    Bit depth : 8 bits
    Scan type : Progressive
    Compression mode : Lossy
    Bits/(Pixel*Frame) : 0.188
    Stream size : 284 MiB (82%)
    Writing library : XviD 1.2.1 (UTC 2008-12-04)
    Audio #1
    ID : 1
    Format : MPEG Audio
    Format version : Version 1
    Format profile : Layer 3
    Format settings : Joint stereo/MS Stereo
    Codec ID : 55
    Codec ID/Hint : MP3
    Duration : 21 min 30 s
    Bit rate mode : Constant
    Bit rate : 128 kb/s
    Channel(s) : 2 channels
    Sampling rate : 48.0 kHz
    Frame rate : 41.667 FPS (1152 SPF)
    Compression mode : Lossy
    Stream size : 19.7 MiB (6%)
    Alignment : Aligned on interleaves
    Interleave, duration : 40 ms (1.00 video frame)
    Interleave, preload duratio : 504 ms
    Writing library : LAME3.99r
    Encoding settings : -m j -V 4 -q 2 -lowpass 17 -b 128
    Audio #2
    ID : 2
    Format : MPEG Audio
    Format version : Version 1
    Format profile : Layer 3
    Format settings : Joint stereo/MS Stereo
    Codec ID : 55
    Codec ID/Hint : MP3
    Duration : 21 min 30 s
    Bit rate mode : Constant
    Bit rate : 128 kb/s
    Channel(s) : 2 channels
    Sampling rate : 48.0 kHz
    Frame rate : 41.667 FPS (1152 SPF)
    Compression mode : Lossy
    Stream size : 19.7 MiB (6%)
    Alignment : Aligned on interleaves
    Interleave, duration : 40 ms (1.00 video frame)
    Interleave, preload duratio : 504 ms
    Writing library : LAME3.99r
    Encoding settings : -m j -V 4 -q 2 -lowpass 17 -b 128
    Audio #3
    ID : 3
    Format : MPEG Audio
    Format version : Version 1
    Format profile : Layer 3
    Format settings : Joint stereo/MS Stereo
    Codec ID : 55
    Codec ID/Hint : MP3
    Duration : 21 min 30 s
    Bit rate mode : Constant
    Bit rate : 128 kb/s
    Channel(s) : 2 channels
    Sampling rate : 48.0 kHz
    Frame rate : 41.667 FPS (1152 SPF)
    Compression mode : Lossy
    Stream size : 19.7 MiB (6%)
    Alignment : Aligned on interleaves
    Interleave, duration : 40 ms (1.00 video frame)
    Interleave, preload duratio : 504 ms
    Writing library : LAME3.99r
    Encoding settings : -m j -V 4 -q 2 -lowpass 17 -b 128


    Онлайн видео Назад в будущее



    Назад в будущее/Back to the Future: The Animated Series (1991-1993) SATRip (Сезон 1-2, серии 1-26 из 26)
    Рейтинг →
     (голосов: 1, оценка 3/5, голосовать можно 1 раз )

    Другие торренты по теме:

  • Назад в будущее: Трилогия / Back to the Future: Trilogy (1985,1989,1990) BDRip [720p]
  • Назад в будущее: Трилогия / Back to the Future: Trilogy (1985,1989,1990) HDRip [H.264] [MP4|960х528] скачать через торрент бесплатно
  • Михаил Задорнов. Неформат 77. Рейтинг Путина, Валдайский клуб, назад в будущее (2015.10.23) WEB-DLRip [H.264 / 720p-LQ] скачать через торрент бесплатно
  • Михаил Задорнов. Неформат 77. Рейтинг Путина, Валдайский клуб, назад в будущее (2015.10.23) WEBRip скачать через торрент бесплатно
  • Назад в будущее: Трилогия / Back to the Future: Trilogy (1985, 1989, 1990) BDRip [H.264 / 720p-LQ] скачать через торрент бесплатно
  • Назад в будущее / Back to the Future: The Animated Series (1991-1993) DVBRip, SATRip (Сезон 1-2 серии 1-26 из 26)
  • Место встречи. Космос- назад в будущее (12.04.2016) SATRip
  • Назад в будущее 3 / Back to the Future Part III (1990) BDRip [H.265 / 1080p]


    • Комментарии (0):

      Информация

      Информация

        Посетители, находящиеся в группе Гости, не могут оставлять комментарии в данной новости.

        ↓ Меню




        ↓ Опрос

        Вы добавили сайт в закладки?
        Да
        Нет


        Популярное