.
Авторизация | Регистрация

torrentbox.xyz

» » Солдатики / Small Soldiers (1998) BDRip [H.264 / 720p] торрент скачать бесплатно


    Солдатики / Small Soldiers (1998) BDRip [H.264 / 720p] торрент скачать бесплатно

    Дата: 17-09-2019, 05:00 | .torrent скачали: 0

    Солдатики / Small Soldiers (1998) BDRip [H.264 / 720p]Производство: США/Universal Pictures, DreamWorks, Amblin Entertainment
    Жанр: фантастика, боевик, комедия, приключения, семейный
    Режиссер: Джо Данте

    Актеры
    Дэвид Кросс, Джей Мор, Александра Уилсон, Дэнис Лири, Грегори Смит, Дик Миллер, Кирстен Данст, Джейкоб Смит, Джонатан Боак, Кевин Данн

    Описание

    Корпорация Глоботек задействовала в производстве игрушек военные технологии, один из разработчиков вставил в новую серию солдатиков сверхсовременные самообучающиеся микропроцессоры. В результате в магазин поступили злые десантники, запрограммированные воевать с добрыми фантастическими существами гаргонитами.
    Первым с ними столкнулся сын владельца маленького магазина игрушек, принявший сторону гаргонитов. Десантники, поначалу не трогавшие гражданских лиц вскоре перешли на совсем неигрушечные боевые действия и против людей. Мальчику, соседской девочке, а затем и их родителям пришлось вступить в бой. К ним присоединились и горе-разработчики, слишком поздно уразумевшие, каких бед они натворили.
    Даже мирные гаргониты, запрограммированные на то, чтобы прятаться, не выдержали и взялись за оружие.

    Возраст: 12+ (зрителям, достигшим 12 лет)
    Рейтинг MPAA: PG-13 (детям до 13 лет просмотр нежелателен)
    Продолжительность: 01: 49: 48
    Качество видео: BDRip
    Перевод: Многоголосый профессиональный, авторский
    Субтитры: русские, английские
    Видео: AVC/H.264, 1280x546, ~6500 kbps
    Аудио 1: AC3, 6 ch, 448 kbps, Русский (MVO Позитив Мультимедиа)
    Аудио 2: AC3, 2 ch, 192 kbps, Русский (AVO Живов)
    Аудио 3: AC3, 6 ch, 640 kbps, Английский

    Общее
    Уникальный идентификатор : 218462039150870283410191063399166319273 (0xA45A421F60306519AE9E123A3BEB1AA9)
    Полное имя : D: FILMSSmall.Soldiers.1998.BDRip.720p.mkv
    Формат : Matroska
    Версия формата : Version 4
    Размер файла : 5, 97 Гбайт
    Продолжительность : 1 ч. 49 м.
    Общий поток : 7780 Кбит/сек
    Название фильма : Солдатики/Small Soldiers (1998)
    Дата кодирования : UTC 2019-09-16 03: 23: 02
    Программа кодирования : mkvmerge v8.2.0 (\'World of Adventure\') 64bit
    Библиотека кодирования : libebml v1.3.1 + libmatroska v1.4.2
    Видео
    Идентификатор : 1
    Формат : AVC
    Формат/Информация : Advanced Video Codec
    Профиль формата : High@L4.1
    Настройки формата : CABAC/9 Ref Frames
    Параметр CABAC формата : Да
    Параметр RefFrames формата : 9 кадров
    Идентификатор кодека : V_MPEG4/ISO/AVC
    Продолжительность : 1 ч. 49 м.
    Битрейт : 6500 Кбит/сек
    Ширина : 1280 пикселей
    Высота : 546 пикселей
    Соотношение сторон : 2, 35: 1
    Режим частоты кадров : Постоянный
    Частота кадров : 23, 976 (24000/1001) кадра/сек
    Цветовое пространство : YUV
    Субдискретизация насыщенности : 4: 2: 0
    Битовая глубина : 8 бит
    Тип развёртки : Прогрессивная
    Бит/(Пиксели*Кадры) : 0.388
    Размер потока : 4, 98 Гбайт (84%)
    Заголовок : BDRip (720p)/MPEG-4 AVC/H.264/6500 kbps/1280x546/23.976 fps
    Библиотека кодирования : x264 core 142 r2409+42 04be48a tMod 8-bit@4: 2: 0 X86_64
    Настройки программы : cabac=1/ref=9/deblock=1: -3: -3/analyse=0x3: 0x113/me=umh/subme=11/psy=1/fade_compensate=0.00/psy_rd=1.00: 0.20/mixed_ref=1/me_range=32/chroma_me=1/trellis=2/8x8dct=1/cqm=0/deadzone=21, 11/fast_pskip=0/chroma_qp_offset=-3/threads=12/lookahead_threads=3/sliced_threads=0/nr=0/decimate=0/interlaced=0/bluray_compat=0/constrained_intra=0/fgo=0/bframes=12/b_pyramid=2/b_adapt=2/b_bias=0/direct=3/weightb=1/open_gop=0/weightp=2/keyint=240/keyint_min=23/scenecut=40/intra_refresh=0/rc=2pass/mbtree=0/bitrate=6500/ratetol=1.0/qcomp=0.60/qpmin=0: 0: 0/qpmax=69: 69: 69/qpstep=4/cplxblur=20.0/qblur=0.5/ip_ratio=1.40/pb_ratio=1.30/aq=2: 0.80/aq-sensitivity=10.00/aq-factor=1.00: 1.00: 1.00/aq2=0/aq3=0
    Язык : English
    Default : Да
    Forced : Да
    Аудио #1
    Идентификатор : 2
    Формат : AC-3
    Формат/Информация : Audio Coding 3
    Коммерческое название : Dolby Digital
    Идентификатор кодека : A_AC3
    Продолжительность : 1 ч. 49 м.
    Вид битрейта : Постоянный
    Битрейт : 448 Кбит/сек
    Каналы : 6 каналов
    ChannelLayout : L R C LFE Ls Rs
    Частота : 48, 0 КГц
    Частота кадров : 31, 250 кадров/сек (1536 SPF)
    Битовая глубина : 16 бит
    Метод сжатия : С потерями
    Размер потока : 352 Мбайт (6%)
    Заголовок : MVO Позитив-Мультимедиа (Rus)/AC3/6 ch/448 kbps/48 kHz
    Язык : Russian
    ServiceKind/String : Complete Main
    Default : Да
    Forced : Да
    Аудио #2
    Идентификатор : 3
    Формат : AC-3
    Формат/Информация : Audio Coding 3
    Коммерческое название : Dolby Digital
    Идентификатор кодека : A_AC3
    Продолжительность : 1 ч. 49 м.
    Вид битрейта : Постоянный
    Битрейт : 192 Кбит/сек
    Каналы : 2 канала
    ChannelLayout : L R
    Частота : 48, 0 КГц
    Частота кадров : 31, 250 кадров/сек (1536 SPF)
    Битовая глубина : 16 бит
    Метод сжатия : С потерями
    Задержка видео : 600 мс.
    Размер потока : 151 Мбайт (2%)
    Заголовок : AVO Живов (Rus)/AC3/2 ch/192 kbps/48 kHz
    Язык : Russian
    ServiceKind/String : Complete Main
    Default : Нет
    Forced : Нет
    Аудио #3
    Идентификатор : 4
    Формат : AC-3
    Формат/Информация : Audio Coding 3
    Коммерческое название : Dolby Digital
    Идентификатор кодека : A_AC3
    Продолжительность : 1 ч. 49 м.
    Вид битрейта : Постоянный
    Битрейт : 640 Кбит/сек
    Каналы : 6 каналов
    ChannelLayout : L R C LFE Ls Rs
    Частота : 48, 0 КГц
    Частота кадров : 31, 250 кадров/сек (1536 SPF)
    Битовая глубина : 16 бит
    Метод сжатия : С потерями
    Размер потока : 503 Мбайт (8%)
    Заголовок : Original (Eng)/AC3/6 ch/640 kbps/48 kHz
    Язык : English
    ServiceKind/String : Complete Main
    Default : Нет
    Forced : Нет
    Текст #1
    Идентификатор : 5
    Формат : UTF-8
    Идентификатор кодека : S_TEXT/UTF8
    Идентификатор кодека/Информация : UTF-8 Plain Text
    Продолжительность : 1 ч. 48 м.
    Битрейт : 101 бит/сек
    ElementCount : 1543
    Размер потока : 81, 2 Кбайт (0%)
    Заголовок : Full (Rus)/S_TEXT/UTF8
    Язык : Russian
    Default : Нет
    Forced : Нет
    Текст #2
    Идентификатор : 6
    Формат : UTF-8
    Идентификатор кодека : S_TEXT/UTF8
    Идентификатор кодека/Информация : UTF-8 Plain Text
    Продолжительность : 1 ч. 48 м.
    Битрейт : 55 бит/сек
    ElementCount : 1210
    Размер потока : 44, 2 Кбайт (0%)
    Заголовок : Full (Eng)/S_TEXT/UTF8
    Язык : English
    Default : Нет
    Forced : Нет
    Меню
    00: 00: 00.000 : en: Chapter 01
    00: 07: 30.324 : en: Chapter 02
    00: 10: 31.672 : en: Chapter 03
    00: 18: 36.281 : en: Chapter 04
    00: 21: 43.302 : en: Chapter 05
    00: 29: 40.528 : en: Chapter 06
    00: 35: 30.711 : en: Chapter 07
    00: 42: 50.484 : en: Chapter 08
    00: 49: 42.521 : en: Chapter 09
    00: 58: 14.699 : en: Chapter 10
    01: 04: 33.744 : en: Chapter 11
    01: 12: 49.740 : en: Chapter 12
    01: 18: 46.263 : en: Chapter 13
    01: 28: 05.905 : en: Chapter 14
    01: 37: 45.192 : en: Chapter 15
    01: 44: 15.165 : en: Chapter 16

    Скриншоты для ознакомления



    Все одноименные релизы в Клубе
    Время раздачи: с 5 до 19 по мск (до появления первых 3-5 скачавших)


    Онлайн видео Солдатики



    Солдатики/Small Soldiers (1998) BDRip [H.264/720p]
    Рейтинг →
     (голосов: 1, оценка 5/5, голосовать можно 1 раз )

    Другие торренты по теме:

  • Солдатики / Small Soldiers (1998) BDRip [H.265 / 1080p-LQ] [10-bit]


    • Комментарии (0):

      Информация

      Информация

        Посетители, находящиеся в группе Гости, не могут оставлять комментарии в данной новости.

        ↓ Меню




        ↓ Опрос

        Вы добавили сайт в закладки?
        Да
        Нет


        Популярное

        Футурама / Futurama (1999-2013) DVDRip (7 Сезонов, 140 серии) скачать через торрент бесплатно

        (скачиваний: 31)
        Роберт Кийосаки | Богатый папа, бедный папа для подростков (2014) [PDF, FB2]

        (скачиваний: 29)
        Анна Рольская | Основы каллиграфии и леттеринга (2017) [PDF]

        (скачиваний: 18)
        Питер Браун | Дикий робот. Спасение дикого робота [2 книги] (2019) [PDF, FB2]

        (скачиваний: 17)
        Оранжевая корова (2018-2019) WEB-DLRip [H.264 / 720p-LQ] (сезон 1, серии 1-3 из 20)

        (скачиваний: 15)
        Александр Никонов | Физика на пальцах. Для детей и родителей, которые хотят объяснять детям (2016) [PDF]

        (скачиваний: 14)
        Пластилинки. Циферки (2018-2019) WEB-DLRip [H.264 / 720p-LQ] (сезон 1, серии 1-6 из 10)

        (скачиваний: 13)
        Эдвард Хэлловэлл, Джон Рэйти | Почему я отвлекаюсь. Как распознать синдром дефицита внимания у взрослых и детей и что с ним делать (2016) [FB2]

        (скачиваний: 13)
        Джоан Кэтлин Роулинг | Гарри Поттер. Полное собрание [7 книг] (2005-2007) [PDF, DJVU, FB2, EPUB]

        (скачиваний: 13)
        Гого: приключение с английским / GOGOs Adventures with English (1995) WEBRip (Сезон 1, серий 39 из 39) [EN] скачать через торрент бесплатно

        (скачиваний: 12)