.
Авторизация | Регистрация

torrentbox.xyz

» » Фокус-покус / Hocus Pocus (1993) BDRip [H.264 / 720p] торрент скачать бесплатно


    Фокус-покус / Hocus Pocus (1993) BDRip [H.264 / 720p] торрент скачать бесплатно

    Дата: 17-09-2019, 05:00 | .torrent скачали: 0

    Фокус-покус / Hocus Pocus (1993) BDRip [H.264 / 720p]Производство: США/Rhythm Hues Studios, Touchwood Pacific Partners 1, Walt Disney Pictures
    Жанр: фэнтези, комедия, семейный
    Режиссер: Кенни Ортега

    Актеры
    Бетт Мидлер, Сара Джессика Паркер, Кэти Нэджими, Омри Кац, Тора Бёрч, Ванесса Шоу, Аманда Шепард, Ларри Бэгби, Тобиаш Элинек, Стефани Фэраси, Чарльз Роккет, Даг Джонс, Керин Малчус, Шон Мюррэй, Стив Воборжил, Норберт Вайссер, Кэтлин Фримен, Д.А. Поли, Эзра Саттон, Дон Йессо, Майкл МакГрэйди, Ли Хэмилтон, Девон Ривз, Джозеф Мэлоун, Джордан Редмонд, Тейлор Стэнли, Пенни Маршалл, Гэрри Маршалл, Крис Генри Коффи

    Описание

    Согласно легенде, если невинная девушка в ночь Хэллоуина зажжет свечу в доме сестер Сандерсон, то ведьмы встанут из могил и съедят всех детей в городе, чтобы самим стать вечно молодыми.
    Поскольку коварным сестрицам суждено воскреснуть через 300 лет после казни за колдовство, им придется привыкать к современным нравам. Например, зачем летать на метле, если есть пылесос? Делая всякие магические гадости, сестрицы Сандерсон так увлекаются этим занятием, что забывают о своем хитром противнике — черном коте…

    Возраст: 6+ (зрителям, достигшим 6 лет)
    Рейтинг MPAA: PG (рекомендуется присутствие родителей)
    Продолжительность: 01: 36: 08
    Качество видео: BDRip
    Перевод: Многоголосый профессиональный
    Субтитры: русские, английские
    Видео: AVC/H.264, 1280x694, ~5732 kbps
    Аудио 1: AC3, 6 ch, 640 kbps, Русский (MVO Позитив Мультимедиа)
    Аудио 2: AC3, 6 ch, 640 kbps, Английский

    Общее
    Уникальный идентификатор : 197084690492500877691723162705281160462 (0x944521758DCABEDCB7E9E3937424150E)
    Полное имя : D: FILMSHocus.Pocus.1993.720p.mkv
    Формат : Matroska
    Версия формата : Version 4
    Размер файла : 4, 71 Гбайт
    Продолжительность : 1 ч. 36 м.
    Общий поток : 6999 Кбит/сек
    Название фильма : Mad Max
    Дата кодирования : UTC 2019-09-15 15: 22: 17
    Программа кодирования : mkvmerge v8.2.0 (\'World of Adventure\') 64bit
    Библиотека кодирования : libebml v1.3.1 + libmatroska v1.4.2
    Видео
    Идентификатор : 1
    Формат : AVC
    Формат/Информация : Advanced Video Codec
    Профиль формата : High@L4.1
    Настройки формата : CABAC/9 Ref Frames
    Параметр CABAC формата : Да
    Параметр RefFrames формата : 9 кадров
    Идентификатор кодека : V_MPEG4/ISO/AVC
    Продолжительность : 1 ч. 36 м.
    Битрейт : 5732 Кбит/сек
    Ширина : 1280 пикселей
    Высота : 694 пикселя
    Соотношение сторон : 1, 85: 1
    Режим частоты кадров : Постоянный
    Частота кадров : 23, 976 (24000/1001) кадра/сек
    Цветовое пространство : YUV
    Субдискретизация насыщенности : 4: 2: 0
    Битовая глубина : 8 бит
    Тип развёртки : Прогрессивная
    Бит/(Пиксели*Кадры) : 0.269
    Размер потока : 3, 84 Гбайт (82%)
    Библиотека кодирования : x264 core 125 r2208 d9d2288
    Настройки программы : cabac=1/ref=9/deblock=1: -3: -3/analyse=0x3: 0x113/me=esa/subme=11/psy=1/psy_rd=1.00: 0.20/mixed_ref=1/me_range=32/chroma_me=1/trellis=2/8x8dct=1/cqm=0/deadzone=21, 11/fast_pskip=0/chroma_qp_offset=-3/threads=4/lookahead_threads=1/sliced_threads=0/nr=0/decimate=0/interlaced=0/bluray_compat=0/constrained_intra=0/bframes=13/b_pyramid=2/b_adapt=2/b_bias=0/direct=3/weightb=1/open_gop=0/weightp=2/keyint=240/keyint_min=23/scenecut=40/intra_refresh=0/rc_lookahead=40/rc=2pass/mbtree=0/bitrate=5732/ratetol=1.0/qcomp=0.60/qpmin=0/qpmax=69/qpstep=4/cplxblur=20.0/qblur=0.5/vbv_maxrate=50000/vbv_bufsize=50000/nal_hrd=none/ip_ratio=1.40/pb_ratio=1.30/aq=1: 1.00
    Язык : English
    Default : Да
    Forced : Нет
    Аудио #1
    Идентификатор : 2
    Формат : AC-3
    Формат/Информация : Audio Coding 3
    Коммерческое название : Dolby Digital
    Идентификатор кодека : A_AC3
    Продолжительность : 1 ч. 36 м.
    Вид битрейта : Постоянный
    Битрейт : 640 Кбит/сек
    Каналы : 6 каналов
    ChannelLayout : L R C LFE Ls Rs
    Частота : 48, 0 КГц
    Частота кадров : 31, 250 кадров/сек (1536 SPF)
    Битовая глубина : 16 бит
    Метод сжатия : С потерями
    Размер потока : 441 Мбайт (9%)
    Заголовок : AC3 5.1 ch 640 kbps MVO Позитив Мультимедия
    Язык : Russian
    ServiceKind/String : Complete Main
    Default : Да
    Forced : Нет
    Аудио #2
    Идентификатор : 3
    Формат : AC-3
    Формат/Информация : Audio Coding 3
    Коммерческое название : Dolby Digital
    Идентификатор кодека : A_AC3
    Продолжительность : 1 ч. 36 м.
    Вид битрейта : Постоянный
    Битрейт : 640 Кбит/сек
    Каналы : 6 каналов
    ChannelLayout : L R C LFE Ls Rs
    Частота : 48, 0 КГц
    Частота кадров : 31, 250 кадров/сек (1536 SPF)
    Битовая глубина : 16 бит
    Метод сжатия : С потерями
    Размер потока : 441 Мбайт (9%)
    Заголовок : AC3 5.1 ch 640 kbps
    Язык : English
    ServiceKind/String : Complete Main
    Default : Нет
    Forced : Нет
    Текст #1
    Идентификатор : 4
    Формат : UTF-8
    Идентификатор кодека : S_TEXT/UTF8
    Идентификатор кодека/Информация : UTF-8 Plain Text
    Продолжительность : 1 ч. 32 м.
    Битрейт : 83 бит/сек
    ElementCount : 1132
    Размер потока : 57, 0 Кбайт (0%)
    Язык : Russian
    Default : Нет
    Forced : Нет
    Текст #2
    Идентификатор : 5
    Формат : UTF-8
    Идентификатор кодека : S_TEXT/UTF8
    Идентификатор кодека/Информация : UTF-8 Plain Text
    Продолжительность : 1 ч. 33 м.
    Битрейт : 57 бит/сек
    ElementCount : 1378
    Размер потока : 39, 4 Кбайт (0%)
    Заголовок : SRT
    Язык : English
    Default : Нет
    Forced : Нет
    Меню
    00: 00: 00.000 : en: 00: 00: 00.000
    00: 08: 40.937 : en: 00: 08: 40.937
    00: 14: 01.466 : en: 00: 14: 01.466
    00: 20: 20.010 : en: 00: 20: 20.010
    00: 26: 46.480 : en: 00: 26: 46.480
    00: 32: 11.596 : en: 00: 32: 11.596
    00: 36: 44.077 : en: 00: 36: 44.077
    00: 43: 59.595 : en: 00: 43: 59.595
    00: 48: 04.298 : en: 00: 48: 04.298
    00: 54: 18.630 : en: 00: 54: 18.630
    01: 01: 23.346 : en: 01: 01: 23.346
    01: 06: 03.168 : en: 01: 06: 03.168
    01: 08: 22.724 : en: 01: 08: 22.724
    01: 14: 39.850 : en: 01: 14: 39.850
    01: 21: 30.344 : en: 01: 21: 30.344
    01: 29: 10.554 : en: 01: 29: 10.554

    Скриншоты для ознакомления



    Все одноименные релизы в Клубе
    Время раздачи: с 5 до 19 по мск (до появления первых 3-5 скачавших)


    Онлайн видео Фокус-покус



    Фокус-покус/Hocus Pocus (1993) BDRip [H.264/720p]
    Рейтинг →
     (голосов: 1, оценка 3/5, голосовать можно 1 раз )

    Другие торренты по теме:

  • Фокус Покус / Hocus Pocus (1993) BDRemux [1080p] скачать через торрент бесплатно


    • Комментарии (0):

      Информация

      Информация

        Посетители, находящиеся в группе Гости, не могут оставлять комментарии в данной новости.

        ↓ Меню




        ↓ Опрос

        Вы добавили сайт в закладки?
        Да
        Нет


        Популярное