.
Авторизация | Регистрация

torrentbox.xyz

» » Братья Комаровы (1961) DVD5 торрент скачать бесплатно


    Братья Комаровы (1961) DVD5 торрент скачать бесплатно

    Дата: 18-09-2019, 05:00 | .torrent скачали: 0

    Братья Комаровы (1961) DVD5Производство: СССР
    Жанр: Детский, семейный
    Режиссер: Анатолий Вехотко

    Актеры
    Володя Мареев, Боря Бархатов, Сережа Рожновский, Марина Орданская, Инна Макарова, Виктор Хохряков, Вера Титова, Игнат Лейрер
    Описание : Детская киноповесть по рассказам Юрия Нагибина Комаров, Старая черепаха, Бешеный бык.
    Три мальчика — братья Комаровы, воспитанники детского сада, каждый по-своему проводит это лето и каждый возвращается домой с открытием.

    Возраст: 0+ (для любого возраста)
    Релиз от: almikl ®
    Продолжительность: 00: 55: 38
    Качество видео: DVD5
    Видео: MPEG-2, 720x576@768x576, ~6000 Kbps
    Аудио: AC3, 2 ch, 192 Kbps
    Меню: статичное
    Дополнительно: реклама

    Общее
    Полное имя : Братья Комаровы.1961.DVD5VIDEO_TSVTS_01_1.VOB
    Формат : MPEG-PS
    Размер файла : 1024 Мбайт
    Продолжительность : 21 м. 33 с.
    Режим общего битрейта : Переменный
    Общий поток : 6643 Кбит/сек
    Видео
    Идентификатор : 224 (0xE0)
    Формат : MPEG Video
    Версия формата : Version 2
    Профиль формата : Main@Main
    Настройки формата : CustomMatrix/BVOP
    Параметр BVOP формата : Да
    Параметр матрицы формата : Выборочная
    Параметр GOP формата : M=3, N=12
    Структура изображения : Frame
    Продолжительность : 21 м. 33 с.
    Вид битрейта : Переменный
    Битрейт : 6318 Кбит/сек
    Максимальный битрейт : 8000 Кбит/сек
    Ширина : 720 пикселей
    Высота : 576 пикселей
    Соотношение сторон : 4: 3
    Частота кадров : 25, 000 кадров/сек
    Стандарт вещания : PAL
    Цветовое пространство : YUV
    Субдискретизация насыщенности : 4: 2: 0
    Битовая глубина : 8 бит
    Тип развёртки : Чересстрочная
    Порядок развёртки : Верхнее поле первое
    Метод сжатия : С потерями
    Бит/(Пиксели*Кадры) : 0.609
    Временной код первого кадра : 00: 00: 00: 00
    Оригинал временного кода : Group of pictures t_head
    GOP, открыто/закрыто : Открыто
    GOP, открыто/закрыто на первом кадре : Закрыто
    Размер потока : 974 Мбайт (95%)
    Основные цвета : BT.601 NTSC
    Характеристики трансфера : BT.601
    Коэффициенты матрицы : BT.601
    Аудио
    Идентификатор : 189 (0xBD)-128 (0x80)
    Формат : AC-3
    Формат/Информация : Audio Coding 3
    Коммерческое название : Dolby Digital
    Режим смешивания : DVD-Video
    Продолжительность : 21 м. 32 с.
    Вид битрейта : Постоянный
    Битрейт : 192 Кбит/сек
    Каналы : 2 канала
    ChannelLayout : L R
    Частота : 48, 0 КГц
    Частота кадров : 31, 250 кадров/сек (1536 SPF)
    Метод сжатия : С потерями
    Размер потока : 29, 6 Мбайт (3%)
    ServiceKind/String : Complete Main
    Меню


    Онлайн видео Приключения Реми



    Братья Комаровы (1961) DVD5
    Рейтинг →
     (голосов: 1, оценка 5/5, голосовать можно 1 раз )

    Другие торренты по теме:

  • Братья Комаровы (1961) DVDRip [H.264]
  • Братья Комаровы (1961) DVDRemux
  • Братья Комаровы (1961) DVDRip
  • Братья Комаровы (1961) DVDRip


    • Комментарии (0):

      Информация

      Информация

        Посетители, находящиеся в группе Гости, не могут оставлять комментарии в данной новости.

        ↓ Меню




        ↓ Опрос

        Вы добавили сайт в закладки?
        Да
        Нет


        Популярное