.
Авторизация | Регистрация

torrentbox.xyz

» » Братья Комаровы (1961) DVDRip [H.264] торрент скачать бесплатно


    Братья Комаровы (1961) DVDRip [H.264] торрент скачать бесплатно

    Дата: 18-09-2019, 05:00 | .torrent скачали: 0

    Братья Комаровы (1961) DVDRip [H.264]Производство: СССР
    Жанр: Детский, семейный
    Режиссер: Анатолий Вехотко

    Актеры
    Володя Мареев, Боря Бархатов, Сережа Рожновский, Марина Орданская, Инна Макарова, Виктор Хохряков, Вера Титова, Игнат Лейрер
    Описание : Детская киноповесть по рассказам Юрия Нагибина Комаров, Старая черепаха, Бешеный бык.
    Три мальчика — братья Комаровы, воспитанники детского сада, каждый по-своему проводит это лето и каждый возвращается домой с открытием.

    Возраст: 0+ (для любого возраста)
    Релиз от: almikl ®
    Продолжительность: 00: 55: 38
    Качество видео: DVDRip
    Видео: AVCH.264, 680x516, ~2300 Kbps
    Аудио: AC3, 2 ch, 192 Kbps

    Общее
    Уникальный идентификатор : 69830943762253558706217592625228887349 (0x3488F35823C0ECF7935353D64C0B3535)
    Полное имя : Братья Комаровы.1961.DVDRip.h264.almikl.nnmclub.mkv
    Формат : Matroska
    Версия формата : Version 2
    Размер файла : 996 Мбайт
    Продолжительность : 55 м. 38 с.
    Общий поток : 2502 Кбит/сек
    Дата кодирования : UTC 2019-08-07 08: 18: 11
    Программа кодирования : mkvmerge v34.0.0 (\'Sight and Seen\') 64-bit
    Библиотека кодирования : libebml v1.3.7 + libmatroska v1.5.0
    Видео
    Идентификатор : 1
    Формат : AVC
    Формат/Информация : Advanced Video Codec
    Профиль формата : High@L4.1
    Настройки формата : CABAC/7 Ref Frames
    Параметр CABAC формата : Да
    Параметр RefFrames формата : 7 кадров
    Идентификатор кодека : V_MPEG4/ISO/AVC
    Продолжительность : 55 м. 38 с.
    Битрейт : 2308 Кбит/сек
    Ширина : 680 пикселей
    Высота : 516 пикселей
    Соотношение сторон : 4: 3
    Режим частоты кадров : Постоянный
    Частота кадров : 25, 000 кадров/сек
    Цветовое пространство : YUV
    Субдискретизация насыщенности : 4: 2: 0
    Битовая глубина : 8 бит
    Тип развёртки : Прогрессивная
    Бит/(Пиксели*Кадры) : 0.263
    Размер потока : 919 Мбайт (92%)
    Библиотека кодирования : x264 core 157 r2969 d4099dd
    Настройки программы : cabac=1/ref=7/deblock=1: -2: -2/analyse=0x3: 0x133/me=umh/subme=10/psy=1/psy_rd=1.00: 0.25/mixed_ref=1/me_range=24/chroma_me=1/trellis=2/8x8dct=1/cqm=0/deadzone=6, 6/fast_pskip=0/chroma_qp_offset=-4/threads=6/lookahead_threads=1/sliced_threads=0/nr=0/decimate=0/interlaced=0/bluray_compat=0/constrained_intra=0/bframes=9/b_pyramid=2/b_adapt=2/b_bias=0/direct=1/weightb=1/open_gop=0/weightp=2/keyint=240/keyint_min=23/scenecut=40/intra_refresh=0/rc_lookahead=40/rc=2pass/mbtree=1/bitrate=2308/ratetol=1.0/qcomp=0.60/qpmin=0/qpmax=69/qpstep=4/cplxblur=20.0/qblur=0.5/vbv_maxrate=50000/vbv_bufsize=62500/nal_hrd=none/filler=0/ip_ratio=1.10/aq=3: 0.80
    Default : Да
    Forced : Нет
    Аудио
    Идентификатор : 2
    Формат : AC-3
    Формат/Информация : Audio Coding 3
    Коммерческое название : Dolby Digital
    Идентификатор кодека : A_AC3
    Продолжительность : 55 м. 38 с.
    Вид битрейта : Постоянный
    Битрейт : 192 Кбит/сек
    Каналы : 2 канала
    ChannelLayout : L R
    Частота : 48, 0 КГц
    Частота кадров : 31, 250 кадров/сек (1536 SPF)
    Метод сжатия : С потерями
    Размер потока : 76, 4 Мбайт (8%)
    Язык : new
    ServiceKind/String : Complete Main
    Default : Да
    Forced : Нет

    Скриншоты для ознакомления


    Все одноименные релизы в Клубе
    Время раздачи: 24/7 (до появления первых 3-5 скачавших)


    Онлайн видео Приключения Реми



    Братья Комаровы (1961) DVDRip [H.264]
    Рейтинг →
     (голосов: 1, оценка 3/5, голосовать можно 1 раз )

    Другие торренты по теме:

  • Братья Комаровы (1961) DVD5
  • Братья Комаровы (1961) DVDRemux
  • Братья Комаровы (1961) DVDRip
  • Братья Комаровы (1961) DVDRip


    • Комментарии (0):

      Информация

      Информация

        Посетители, находящиеся в группе Гости, не могут оставлять комментарии в данной новости.

        ↓ Меню




        ↓ Опрос

        Вы добавили сайт в закладки?
        Да
        Нет


        Популярное

        Футурама / Futurama (1999-2013) DVDRip (7 Сезонов, 140 серии) скачать через торрент бесплатно

        (скачиваний: 31)
        Роберт Кийосаки | Богатый папа, бедный папа для подростков (2014) [PDF, FB2]

        (скачиваний: 29)
        Анна Рольская | Основы каллиграфии и леттеринга (2017) [PDF]

        (скачиваний: 18)
        Питер Браун | Дикий робот. Спасение дикого робота [2 книги] (2019) [PDF, FB2]

        (скачиваний: 17)
        Оранжевая корова (2018-2019) WEB-DLRip [H.264 / 720p-LQ] (сезон 1, серии 1-3 из 20)

        (скачиваний: 15)
        Александр Никонов | Физика на пальцах. Для детей и родителей, которые хотят объяснять детям (2016) [PDF]

        (скачиваний: 14)
        Пластилинки. Циферки (2018-2019) WEB-DLRip [H.264 / 720p-LQ] (сезон 1, серии 1-6 из 10)

        (скачиваний: 13)
        Эдвард Хэлловэлл, Джон Рэйти | Почему я отвлекаюсь. Как распознать синдром дефицита внимания у взрослых и детей и что с ним делать (2016) [FB2]

        (скачиваний: 13)
        Джоан Кэтлин Роулинг | Гарри Поттер. Полное собрание [7 книг] (2005-2007) [PDF, DJVU, FB2, EPUB]

        (скачиваний: 13)
        Гого: приключение с английским / GOGOs Adventures with English (1995) WEBRip (Сезон 1, серий 39 из 39) [EN] скачать через торрент бесплатно

        (скачиваний: 12)