.
Авторизация | Регистрация

torrentbox.xyz

» » Братья Комаровы (1961) DVDRemux торрент скачать бесплатно


    Братья Комаровы (1961) DVDRemux торрент скачать бесплатно

    Дата: 18-09-2019, 05:00 | .torrent скачали: 0

    Братья Комаровы (1961) DVDRemuxПроизводство: СССР
    Жанр: Детский, семейный
    Режиссер: Анатолий Вехотко

    Актеры
    Володя Мареев, Боря Бархатов, Сережа Рожновский, Марина Орданская, Инна Макарова, Виктор Хохряков, Вера Титова, Игнат Лейрер
    Описание : Детская киноповесть по рассказам Юрия Нагибина Комаров, Старая черепаха, Бешеный бык.
    Три мальчика — братья Комаровы, воспитанники детского сада, каждый по-своему проводит это лето и каждый возвращается домой с открытием.

    Возраст: 0+ (для любого возраста)
    Релиз от: almikl ®
    Продолжительность: 00: 55: 38
    Качество видео: DVDRip
    Видео: MPEG-2, 720x576@768x576, ~6000 Kbps
    Аудио: AC3, 2 ch, 192 Kbps

    Общее
    Уникальный идентификатор : 13102289414545042495799471189222200718 (0x9DB68BE355A6B299C03AA47F35B958E)
    Полное имя : F: VideobratiyaБратья Комаровы.1961.DVDRemux.almikl.nnmclub.mkv
    Формат : Matroska
    Версия формата : Version 2
    Размер файла : 2, 41 Гбайт
    Продолжительность : 55 м. 38 с.
    Режим общего битрейта : Переменный
    Общий поток : 6197 Кбит/сек
    Дата кодирования : UTC 2019-08-06 11: 00: 01
    Программа кодирования : MakeMKV v1.14.3 win(x64-release)
    Библиотека кодирования : libmakemkv v1.14.3 (1.3.5/1.4.7) win(x64-release)
    Видео
    Идентификатор : 1
    OriginalSourceMedium_ID/String : 224 (0xE0)
    Формат : MPEG Video
    Версия формата : Version 2
    Профиль формата : Main@Main
    Настройки формата : CustomMatrix/BVOP
    Параметр BVOP формата : Да
    Параметр матрицы формата : Выборочная
    Параметр GOP формата : M=3, N=12
    Структура изображения : Frame
    Идентификатор кодека : V_MPEG2
    Идентификатор кодека/Информация : MPEG 1 or 2 Video
    Продолжительность : 55 м. 38 с.
    Вид битрейта : Переменный
    Битрейт : 5999 Кбит/сек
    Максимальный битрейт : 8000 Кбит/сек
    Ширина : 720 пикселей
    Высота : 576 пикселей
    Соотношение сторон : 4: 3
    Режим частоты кадров : Постоянный
    Частота кадров : 25, 000 кадров/сек
    Стандарт вещания : PAL
    Цветовое пространство : YUV
    Субдискретизация насыщенности : 4: 2: 0
    Битовая глубина : 8 бит
    Тип развёртки : Чересстрочная
    Порядок развёртки : Верхнее поле первое
    Метод сжатия : С потерями
    Бит/(Пиксели*Кадры) : 0.579
    Временной код первого кадра : 00: 00: 00: 00
    Оригинал временного кода : Group of pictures t_head
    GOP, открыто/закрыто : Открыто
    GOP, открыто/закрыто на первом кадре : Закрыто
    Размер потока : 2, 33 Гбайт (97%)
    Язык : English
    Default : Нет
    Forced : Нет
    Основные цвета : BT.601 NTSC
    Характеристики трансфера : BT.601
    Коэффициенты матрицы : BT.601
    Носитель оригинала : DVD-Video
    Аудио
    Идентификатор : 2
    OriginalSourceMedium_ID/String : 189 (0xBD)128 (0x80)
    Формат : AC-3
    Формат/Информация : Audio Coding 3
    Коммерческое название : Dolby Digital
    Идентификатор кодека : A_AC3
    Продолжительность : 55 м. 38 с.
    Вид битрейта : Постоянный
    Битрейт : 192 Кбит/сек
    Каналы : 2 канала
    ChannelLayout : L R
    Частота : 48, 0 КГц
    Частота кадров : 31, 250 кадров/сек (1536 SPF)
    Метод сжатия : С потерями
    Размер потока : 76, 4 Мбайт (3%)
    Заголовок : Stereo
    Язык : Russian
    ServiceKind/String : Complete Main
    Default : Да
    Forced : Нет
    Носитель оригинала : DVD-Video
    Меню
    00: 00: 00.000 : en: Chapter 01
    00: 17: 55.800 : en: Chapter 02
    00: 36: 16.800 : en: Chapter 03

    Скриншоты для ознакомления


    Все одноименные релизы в Клубе
    Время раздачи: 24/7 (до появления первых 3-5 скачавших)


    Онлайн видео Приключения Реми



    Братья Комаровы (1961) DVDRemux
    Рейтинг →
     (голосов: 1, оценка 5/5, голосовать можно 1 раз )

    Другие торренты по теме:

  • Братья Комаровы (1961) DVD5
  • Братья Комаровы (1961) DVDRip [H.264]
  • Братья Комаровы (1961) DVDRip
  • Братья Комаровы (1961) DVDRip


    • Комментарии (0):

      Информация

      Информация

        Посетители, находящиеся в группе Гости, не могут оставлять комментарии в данной новости.

        ↓ Меню




        ↓ Опрос

        Вы добавили сайт в закладки?
        Да
        Нет


        Популярное