.
Авторизация | Регистрация

torrentbox.xyz

» » Братья Комаровы (1961) DVDRip торрент скачать бесплатно


    Братья Комаровы (1961) DVDRip торрент скачать бесплатно

    Дата: 18-09-2019, 05:00 | .torrent скачали: 0

    Братья Комаровы (1961) DVDRipПроизводство: СССР
    Жанр: Детский, семейный
    Режиссер: Анатолий Вехотко

    Актеры
    Володя Мареев, Боря Бархатов, Сережа Рожновский, Марина Орданская, Инна Макарова, Виктор Хохряков, Вера Титова, Игнат Лейрер
    Описание : Детская киноповесть по рассказам Юрия Нагибина Комаров, Старая черепаха, Бешеный бык.
    Три мальчика — братья Комаровы, воспитанники детского сада, каждый по-своему проводит это лето и каждый возвращается домой с открытием.

    Возраст: 0+ (для любого возраста)
    Релиз от: almikl ®
    Продолжительность: 00: 55: 38
    Качество видео: DVDRip
    Видео: XviD, 560x416, ~3300 Kbps
    Аудио: AC3, 2 ch, 192 Kbps

    Общее
    Полное имя : Братья Комаровы.1961.DVDRip.almikl.nnmclub.avi
    Формат : AVI
    Формат/Информация : Audio Video Interleave
    Размер файла : 1, 37 Гбайт
    Продолжительность : 55 м. 38 с.
    Общий поток : 3518 Кбит/сек
    Программа кодирования : VirtualDubMod 1.5.4.1 (build 2178/release)
    Библиотека кодирования : VirtualDubMod build 2178/release
    Видео
    Идентификатор : 0
    Формат : MPEG-4 Visual
    Профиль формата : Advanced Simple@L5
    Настройки формата : BVOP1/Custom Matrix
    Параметр BVOP формата : 1
    Параметр QPel формата : Нет
    Параметр GMC формата : Без точки перехода
    Параметр матрицы формата : Выборочная
    Идентификатор кодека : XVID
    Идентификатор кодека/Подсказка : XviD
    Продолжительность : 55 м. 38 с.
    Битрейт : 3319 Кбит/сек
    Ширина : 560 пикселей
    Высота : 416 пикселей
    Соотношение сторон : 4: 3
    Частота кадров : 25, 000 кадров/сек
    Цветовое пространство : YUV
    Субдискретизация насыщенности : 4: 2: 0
    Битовая глубина : 8 бит
    Тип развёртки : Прогрессивная
    Метод сжатия : С потерями
    Бит/(Пиксели*Кадры) : 0.570
    Размер потока : 1, 29 Гбайт (94%)
    Библиотека кодирования : XviD 73
    Аудио
    Идентификатор : 1
    Формат : AC-3
    Формат/Информация : Audio Coding 3
    Коммерческое название : Dolby Digital
    Идентификатор кодека : 2000
    Продолжительность : 55 м. 38 с.
    Вид битрейта : Постоянный
    Битрейт : 192 Кбит/сек
    Каналы : 2 канала
    ChannelLayout : L R
    Частота : 48, 0 КГц
    Частота кадров : 31, 250 кадров/сек (1536 SPF)
    Метод сжатия : С потерями
    Размер потока : 76, 4 Мбайт (5%)
    Выравнивание : Разделение по промежуткам
    Продолжительность промежутка : 96 мс. (2, 40 видеокадра)
    Время предзагрузки промежутка : 96 мс.
    ServiceKind/String : Complete Main

    Скриншоты для ознакомления


    Все одноименные релизы в Клубе
    Время раздачи: 24/7 (до появления первых 3-5 скачавших)


    Онлайн видео Приключения Реми



    Братья Комаровы (1961) DVDRip
    Рейтинг →
     (голосов: 1, оценка 3/5, голосовать можно 1 раз )

    Другие торренты по теме:

  • Братья Комаровы (1961) DVD5
  • Братья Комаровы (1961) DVDRip [H.264]
  • Братья Комаровы (1961) DVDRemux
  • Братья Комаровы (1961) DVDRip


    • Комментарии (0):

      Информация

      Информация

        Посетители, находящиеся в группе Гости, не могут оставлять комментарии в данной новости.

        ↓ Меню




        ↓ Опрос

        Вы добавили сайт в закладки?
        Да
        Нет


        Популярное