.
Авторизация | Регистрация

torrentbox.xyz

» » Гадкий я + Миньоны / Despicable Me + Minions (2010-2017) BDRip [H.265 / 1080p-LQ] [10-bit] [Collection] торрент скачать бесплатно


    Гадкий я + Миньоны / Despicable Me + Minions (2010-2017) BDRip [H.265 / 1080p-LQ] [10-bit] [Collection] торрент скачать бесплатно

    Дата: 19-09-2019, 05:00 | .torrent скачали: 0

    Гадкий я + Миньоны / Despicable Me + Minions (2010-2017) BDRip [H.265 / 1080p-LQ] [10-bit] [Collection]Производство: США, Франция, Япония/Illumination Entertainment, Universal Pictures
    Жанр: мультфильм, фэнтези, комедия, семейный
    Режиссер: Пьер Коффан, Крис Рено, Эрик Гуильон, Кайл Балда

    Описание
    Мультфильм посвящен эксцентричному супер злодею по имени Грю Мексон. Уж этот человек отлично знает толк в мелких хулиганских поступках и крупных гадостей. Грю не упустит ни минутки, чтобы навредить окружающим. Когда Мексон совершает мерзкий поступок, он получает небывалое удовольствие. Помогают ему в хулиганье маленькие и глупые миньоны, которые являются прислужниками зла.
    Продолжительность: 01: 34: 48 | 01: 37: 58 | 01: 29: 40 | 01: 30: 58
    Качество видео: BDRip
    Перевод: Дублированный
    Субтитры: Русские, украинские, английские
    Видео: HEVC/H.265, 1920x1040/1920x1036/1920x804/1920x1036, ~3882/~4612/~5134/~759 Kbps
    Аудио 1: AC3, 6 ch, 640 Kbps - Русский
    Аудио 2: AC3, 6/2/6 ch, 384/192/640 Kbps - Украинский
    Аудио 3: AC3, 6 ch, 640 Kbps - Английский
    Гадкий я/Despicable Me (2010) BDRip
    Производство: США, Франция/Universal Pictures, Illumination Entertainment
    Жанр: мультфильм, фэнтези, комедия, семейный
    Режиссер: Пьер Коффан, Крис Рено

    Описание
    Гадкий снаружи, но добрый внутри Грю намерен, тем не менее, закрепить за собой статус главного архизлодея в мире, для чего он решает выкрасть Луну при помощи созданной им армии миньонов. Дело осложняют конкуренты, вставляющие высокотехнические палки в колеса, и семейные обстоятельства в виде трех сироток, о которых Грю вынужден заботиться.

    Возраст: 0+ (для любой зрительской аудитории)
    Рейтинг MPAA: PG (рекомендуется присутствие родителей)
    Релиз от: Mr. Fox (HEVC-CLUB)
    Продолжительность: 01: 34: 48
    Качество видео: BDRip
    Перевод: Дублированный
    Субтитры: Русские (форсированные, полные), украинские (форсированные), английские (полные, SDH-Colored)
    Видео: HEVC/H.265, 1920x1040, ~3882 Kbps
    Аудио 1: AC3, 6 ch, 640 Kbps - Русский, дублированный
    Аудио 2: AC3, 6 ch, 384 Kbps - Украинский, дублированный
    Аудио 3: AC3, 6 ch, 640 Kbps - Английский

    Общее
    Уникальный идентификатор : 40844809711496380927884016300656731224 (0x1EBA6C99005F6E11A9E63CB268E8A458)
    Полное имя : R: Despicable Me1. Decpicable Me (2010) BDRip 1080p HEVC.mkv
    Формат : Matroska
    Версия формата : Version 4/Version 2
    Размер файла : 3, 67 Гбайт
    Продолжительность : 1 ч. 34 м.
    Общий поток : 5544 Кбит/сек
    Название фильма : Despicable Me (2010)
    Дата кодирования : UTC 2019-07-22 15: 47: 35
    Программа кодирования : mkvmerge v35.0.0 (\'All The Love In The World\') 64-bit
    Библиотека кодирования : libebml v1.3.9 + libmatroska v1.5.2
    Обложка : Yes
    Attachments : cover.jpg
    Видео
    Идентификатор : 1
    Формат : HEVC
    Формат/Информация : High Efficiency Video Coding
    Профиль формата : Main10@L4.1@High
    Идентификатор кодека : V_MPEGH/ISO/HEVC
    Продолжительность : 1 ч. 34 м.
    Битрейт : 3882 Кбит/сек
    Ширина : 1920 пикселей
    Высота : 1040 пикселей
    Соотношение сторон : 1, 85: 1
    Режим частоты кадров : Постоянный
    Частота кадров : 23, 976 (23976/1000) кадра/сек
    Частота кадров в оригинале : 23, 976 (24000/1001) кадра/сек
    Цветовое пространство : YUV
    Субдискретизация насыщенности : 4: 2: 0
    Битовая глубина : 10 бит
    Бит/(Пиксели*Кадры) : 0.081
    Размер потока : 2, 57 Гбайт (70%)
    Библиотека кодирования : x265 3.0_Au+4-dcbec33bfb0f: WindowsMSVC 191664 bit 10bit
    Настройки программы : cpuid=1111039/frame-threads=3/numa-pools=12/wpp/no-pmode/no-pme/no-psnr/no-ssim/log-level=2/input-csp=1/input-res=1920x1040/interlace=0/total-frames=136223/level-idc=41/high-tier=1/uhd-bd=0/ref=5/no-allow-non-conformance/no-repeat-t_heads/annexb/no-aud/no-hrd/info/hash=0/no-temporal-layers/open-gop/min-keyint=23/keyint=240/gop-lookahead=0/bframes=16/b-adapt=2/b-pyramid/bframe-bias=0/rc-lookahead=60/lookahead-slices=4/scenecut=40/radl=0/no-splice/no-intra-refresh/ctu=32/min-cu-size=8/rect/amp/max-tu-size=32/tu-inter-depth=4/tu-intra-depth=4/limit-tu=1/rdoq-level=2/dynamic-rd=0.00/no-ssim-rd/signhide/no-tskip/nr-intra=0/nr-inter=0/no-constrained-intra/no-strong-intra-smoothing/max-merge=4/limit-refs=2/limit-modes/me=3/subme=7/merange=57/temporal-mvp/weightp/weightb/no-analyze-src-pics/deblock=-3: -3/no-sao/no-sao-non-deblock/rd=6/no-early-skip/no-rskip/no-fast-intra/no-tskip-fast/no-cu-lossless/no-b-intra/no-splitrd-skip/rdpenalty=0/psy-rd=2.00/psy-rdoq=1.00/no-rd-refine/no-lossless/cbqpoffs=0/crqpoffs=0/rc=crf/crf=20.0/qcomp=0.60/qpstep=4/stats-write=0/stats-read=0/vbv-maxrate=50000/vbv-bufsize=50000/vbv-init=0.9/crf-max=0.0/crf-min=0.0/ipratio=1.40/pbratio=1.30/aq-mode=1/aq-strength=0.90/no-cutree/zone-count=0/no-strict-cbr/qg-size=32/no-rc-grain/qpmax=69/qpmin=0/no-const-vbv/sar=1/overscan=0/videoformat=5/range=0/colorprim=2/transfer=2/colormatrix=2/chromaloc=0/display-window=0/max-cll=0, 0/min-luma=0/max-luma=1023/log2-max-poc-lsb=8/vui-timing-info/vui-hrd-info/slices=1/no-opt-qp-pps/no-opt-ref-list-length-pps/no-multi-pass-opt-rps/scenecut-bias=0.05/no-opt-cu-delta-qp/no-aq-motion/no-hdr/no-hdr-opt/no-dhdr10-opt/no-idr-recovery-sei/analysis-reuse-level=5/scale-factor=0/refine-intra=0/refine-inter=0/refine-mv=0/refine-ctu-distortion=0/no-limit-sao/ctu-info=0/no-lowpass-dct/refine-analysis-type=0/copy-pic=1/max-ausize-factor=1.0/no-dynamic-refine/no-single-sei/no-hevc-aq/qp-adaptation-range=1.00
    Default : Да
    Forced : Нет
    Аудио #1
    Идентификатор : 2
    Формат : AC-3
    Формат/Информация : Audio Coding 3
    Идентификатор кодека : A_AC3
    Продолжительность : 1 ч. 34 м.
    Вид битрейта : Постоянный
    Битрейт : 640 Кбит/сек
    Каналы : 6 каналов
    Расположение каналов : Front: L C R, Side: L R, LFE
    Частота : 48, 0 КГц
    Частота кадров : 31, 250 кадров/сек (1536 SPF)
    Битовая глубина : 16 бит
    Метод сжатия : С потерями
    Размер потока : 434 Мбайт (12%)
    Заголовок : Дубляж
    Язык : Russian
    ServiceKind/String : Complete Main
    Default : Да
    Forced : Нет
    Аудио #2
    Идентификатор : 3
    Формат : AC-3
    Формат/Информация : Audio Coding 3
    Идентификатор кодека : A_AC3
    Продолжительность : 1 ч. 34 м.
    Вид битрейта : Постоянный
    Битрейт : 384 Кбит/сек
    Каналы : 6 каналов
    Расположение каналов : Front: L C R, Side: L R, LFE
    Частота : 48, 0 КГц
    Частота кадров : 31, 250 кадров/сек (1536 SPF)
    Битовая глубина : 16 бит
    Метод сжатия : С потерями
    Размер потока : 260 Мбайт (7%)
    Заголовок : Дубляж
    Язык : Ukrainian
    ServiceKind/String : Complete Main
    Default : Нет
    Forced : Нет
    Аудио #3
    Идентификатор : 4
    Формат : AC-3
    Формат/Информация : Audio Coding 3
    Идентификатор кодека : A_AC3
    Продолжительность : 1 ч. 34 м.
    Вид битрейта : Постоянный
    Битрейт : 640 Кбит/сек
    Каналы : 6 каналов
    Расположение каналов : Front: L C R, Side: L R, LFE
    Частота : 48, 0 КГц
    Частота кадров : 31, 250 кадров/сек (1536 SPF)
    Битовая глубина : 16 бит
    Метод сжатия : С потерями
    Размер потока : 434 Мбайт (12%)
    Заголовок : Original
    Язык : English
    ServiceKind/String : Complete Main
    Default : Нет
    Forced : Нет
    Текст #1
    Идентификатор : 5
    Формат : UTF-8
    Идентификатор кодека : S_TEXT/UTF8
    Идентификатор кодека/Информация : UTF-8 Plain Text
    Продолжительность : 1 ч. 10 м.
    Битрейт : 2 бит/сек
    ElementCount : 34
    Размер потока : 1, 28 Кбайт (0%)
    Заголовок : Forced
    Язык : Russian
    Default : Да
    Forced : Да
    Текст #2
    Идентификатор : 6
    Формат : UTF-8
    Идентификатор кодека : S_TEXT/UTF8
    Идентификатор кодека/Информация : UTF-8 Plain Text
    Продолжительность : 1 ч. 28 м.
    Битрейт : 68 бит/сек
    ElementCount : 973
    Размер потока : 44, 7 Кбайт (0%)
    Язык : Russian
    Default : Нет
    Forced : Нет
    Текст #3
    Идентификатор : 7
    Формат : UTF-8
    Идентификатор кодека : S_TEXT/UTF8
    Идентификатор кодека/Информация : UTF-8 Plain Text
    Продолжительность : 1 ч. 7 м.
    Битрейт : 2 бит/сек
    ElementCount : 33
    Размер потока : 1, 22 Кбайт (0%)
    Заголовок : Forced
    Язык : Ukrainian
    Default : Нет
    Forced : Нет
    Текст #4
    Идентификатор : 8
    Формат : UTF-8
    Идентификатор кодека : S_TEXT/UTF8
    Идентификатор кодека/Информация : UTF-8 Plain Text
    Продолжительность : 1 ч. 28 м.
    Битрейт : 67 бит/сек
    ElementCount : 958
    Размер потока : 43, 8 Кбайт (0%)
    Заголовок : Full
    Язык : Ukrainian
    Default : Нет
    Forced : Нет
    Текст #5
    Идентификатор : 9
    Формат : UTF-8
    Идентификатор кодека : S_TEXT/UTF8
    Идентификатор кодека/Информация : UTF-8 Plain Text
    Продолжительность : 1 ч. 29 м.
    Битрейт : 40 бит/сек
    ElementCount : 911
    Размер потока : 26, 4 Кбайт (0%)
    Заголовок : Full
    Язык : English
    Default : Нет
    Forced : Нет
    Текст #6
    Идентификатор : 10
    Формат : UTF-8
    Идентификатор кодека : S_TEXT/UTF8
    Идентификатор кодека/Информация : UTF-8 Plain Text
    Продолжительность : 1 ч. 34 м.
    Битрейт : 61 бит/сек
    ElementCount : 1226
    Размер потока : 42, 2 Кбайт (0%)
    Заголовок : SDH-Colored
    Язык : English
    Default : Нет
    Forced : Нет
    Меню
    00: 00: 00.000 : en: Global Panic
    00: 03: 22.411 : en: Meet Gru
    00: 06: 31.891 : en: Crime Of The Century
    00: 12: 05.099 : en: Home for Girls
    00: 13: 50.496 : en: Bank of Evil
    00: 18: 38.826 : en: Shrink Ray Theft
    00: 23: 06.844 : en: Vector\'s Fortress
    00: 25: 56.221 : en: Adoption
    00: 30: 40.839 : en: Setting Some Rules
    00: 34: 48.753 : en: Top Secret
    00: 39: 43.047 : en: Pinky Promise
    00: 43: 38.366 : en: Cookiebots
    00: 48: 19.188 : en: Fun Land
    00: 52: 52.502 : en: Cotton Candy?
    00: 56: 46.111 : en: New Funding
    01: 02: 08.016 : en: Sleepy Kittens
    01: 09: 23.868 : en: To the Moon
    01: 16: 25.456 : en: Rescue
    01: 22: 41.581 : en: One Big Unicorn
    01: 27: 35.375 : en: End Titles


    Гадкий я + Миньоны/Despicable Me + Minions (2010-2017) BDRip [H.265/1080p-LQ] [10-bit] [Collection]
    Рейтинг →
     (голосов: 1, оценка 5/5, голосовать можно 1 раз )

    Другие торренты по теме:

  • Бар «Гадкий койот» / Coyote Ugly (2000) DVDRip [H.264] скачать через торрент бесплатно
  • Despicable Me / Гадкий Я 2.8.0k [Ru] скачать через торрент бесплатно
  • Ганс Христиан Андерсен | Гадкий утёнок, ель (1961,1962 / 1996) [WavPack] скачать через торрент бесплатно
  • Гадкий я 3 / Despicable Me 3 (2017) TS [H.264] [MP4|720x304] [AD]
  • Гадкий Я / Despicable Me (2010) BDRip [H.265 / 1080p-LQ]
  • Гадкий Я 2 / Despicable Me 2 (2013) BDRip [H.265 / 1080p-LQ]
  • Гадкий я 3 / Despicable Me 3 (2017) WEBRip [H.264 / 1080p-LQ] [EN / EN Sub]
  • Гадкий я 3 / Despicable Me 3 (2017) WEBRip [AD]


    • Комментарии (0):

      Информация

      Информация

        Посетители, находящиеся в группе Гости, не могут оставлять комментарии в данной новости.

        ↓ Меню




        ↓ Опрос

        Вы добавили сайт в закладки?
        Да
        Нет


        Популярное

        Футурама / Futurama (1999-2013) DVDRip (7 Сезонов, 140 серии) скачать через торрент бесплатно

        (скачиваний: 31)
        Роберт Кийосаки | Богатый папа, бедный папа для подростков (2014) [PDF, FB2]

        (скачиваний: 29)
        Анна Рольская | Основы каллиграфии и леттеринга (2017) [PDF]

        (скачиваний: 18)
        Питер Браун | Дикий робот. Спасение дикого робота [2 книги] (2019) [PDF, FB2]

        (скачиваний: 17)
        Оранжевая корова (2018-2019) WEB-DLRip [H.264 / 720p-LQ] (сезон 1, серии 1-3 из 20)

        (скачиваний: 15)
        Александр Никонов | Физика на пальцах. Для детей и родителей, которые хотят объяснять детям (2016) [PDF]

        (скачиваний: 14)
        Пластилинки. Циферки (2018-2019) WEB-DLRip [H.264 / 720p-LQ] (сезон 1, серии 1-6 из 10)

        (скачиваний: 13)
        Эдвард Хэлловэлл, Джон Рэйти | Почему я отвлекаюсь. Как распознать синдром дефицита внимания у взрослых и детей и что с ним делать (2016) [FB2]

        (скачиваний: 13)
        Джоан Кэтлин Роулинг | Гарри Поттер. Полное собрание [7 книг] (2005-2007) [PDF, DJVU, FB2, EPUB]

        (скачиваний: 13)
        Гого: приключение с английским / GOGOs Adventures with English (1995) WEBRip (Сезон 1, серий 39 из 39) [EN] скачать через торрент бесплатно

        (скачиваний: 12)