.
Авторизация | Регистрация

torrentbox.xyz

» » Умные вещи (1973) DVDRip [H.264] (2 серии) торрент скачать бесплатно


    Умные вещи (1973) DVDRip [H.264] (2 серии) торрент скачать бесплатно

    Дата: 19-09-2019, 05:00 | .torrent скачали: 0

    Умные вещи (1973) DVDRip [H.264] (2 серии)Производство: СССР, Ленфильм
    Жанр: Детский, семейный, фэнтези, сказка
    Режиссер: Анатолий Граник

    Актеры
    Наталья Богунова, Сергей Паршин, Николай Крюков, Евгений Весник, Александр Демьяненко, Валерий Носик, Георгий Антонов, Павел Панков, Марина Мальцева, Наталья Патракова

    Описание

    Есть на шумном базаре неприметная лавка с вывеской Умные вещи. И товар в ней сплошь чудесный: и дудка-самогудка, и скатерть-самобранка, и сапоги-скороходы — ни одной обыденной вещи не сыщешь. Каждый, кто в лавку зайдет, может те умные вещи приобрести, и платы высокой продавец не потребует. Вот только не каждый сумеет такими диковинками с толком воспользоваться.

    Релиз от: Korsar
    Продолжительность: 01: 02: 54 + 01: 05: 29
    Качество видео: DVDRip
    Видео: AVC/H.264, 720x576@768x576, ~2 845 kbps
    Аудио: AC3, 2 ch, 192 kbps

    Общее
    Уникальный идентификатор : 173608980290446523602655442810721164043 (0x829BDF958AEE1058B7F804C33FA65B0B)
    Полное имя : D: Умные вещи_1973-DVDRip-AVC_KORSAR.mkv
    Формат : Matroska
    Размер файла : 2, 78 Гбайт
    Продолжительность : 2 ч. 8 м.
    Общий поток : 3099 Кбит/сек
    Название фильма : Умные вещи_1973-DVDRip-AVC_KORSAR
    Дата кодирования : UTC 2018-08-10 19: 13: 20
    Программа кодирования : mkvmerge v5.8.0 (\'No Sleep/Pillow\') built on Sep 2 2012 15: 37: 04
    Библиотека кодирования : libebml v1.2.3 + libmatroska v1.3.0
    Видео
    Идентификатор : 1
    Формат : AVC
    Формат/Информация : Advanced Video Codec
    Профиль формата : High@L4.1
    Параметр CABAC формата : Да
    Параметр ReFrames формата : 14 кадры
    Идентификатор кодека : V_MPEG4/ISO/AVC
    Продолжительность : 2 ч. 8 м.
    Битрейт : 2845 Кбит/сек
    Ширина : 720 пикс.
    Высота : 576 пикс.
    Соотношение сторон : 4: 3
    Частота кадров : 25, 000 кадр/сек
    Стандарт вещания : PAL
    Цветовое пространство : YUV
    Подвыборка цветности : 4: 2: 0
    Битовая глубина : 8 бит
    Тип развёртки : Прогрессивная
    Бит/(Пиксели*Кадры) : 0.274
    Размер потока : 2, 55 Гбайт (92%)
    Библиотека кодирования : x264 core 152 r2851kMod ba24899
    Настройки программы : cabac=1/ref=14/deblock=1: -2: -1/analyse=0x3: 0x133/me=umh/subme=10/psy=1/fade_compensate=0.00/psy_rd=1.05: 0.10/mixed_ref=1/me_range=40/chroma_me=1/trellis=2/8x8dct=1/cqm=0/deadzone=21, 11/fast_pskip=1/chroma_qp_offset=-3/threads=12/lookahead_threads=2/sliced_threads=0/nr=0/decimate=1/interlaced=0/bluray_compat=0/constrained_intra=0/bframes=9/b_pyramid=2/b_adapt=2/b_bias=0/direct=1/weightb=1/open_gop=0/weightp=2/keyint=250/keyint_min=25/scenecut=40/intra_refresh=0/rc=crf/mbtree=0/crf=17.7000/qcomp=0.63/qpmin=0/qpmax=39/qpstep=4/ip_ratio=1.40/pb_ratio=1.30/aq=1: 1.00
    Язык : English
    Основные цвета : BT.470-6 System B, BT.470-6 System G, BT.601-6 625, BT.1358 625, BT.1700 625 PAL, BT.1700 625 SECAM
    Характеристики трансфера : BT.470-6 System B, BT.470-6 System G
    Коэффициенты матрицы : BT.470-6 System B, BT.470-6 System G, BT.601-6 625, BT.1358 625, BT.1700 625 PAL, BT.1700 625 SECAM, IEC 61966-2-4 601
    Аудио
    Идентификатор : 2
    Формат : AC-3
    Формат/Информация : Audio Coding 3
    Расширение режима : CM (complete main)
    Идентификатор кодека : A_AC3
    Продолжительность : 2 ч. 8 м.
    Вид битрейта : Постоянный
    Битрейт : 192 Кбит/сек
    Канал(ы) : 2 канала(ов)
    Расположение каналов : Front: L R
    Частота : 48, 0 КГц
    Битовая глубина : 16 бит
    Метод сжатия : С потерями
    Размер потока : 176 Мбайт (6%)
    Язык : Russian

    Скриншоты для ознакомления



    Все одноименные релизы в Клубе
    Время раздачи: 24/7 (мультитрекерная раздача) (до появления первых 3-5 скачавших)


    Умные вещи (1973) DVDRip [H.264] (2 серии)
    Рейтинг →
     (голосов: 1, оценка 3/5, голосовать можно 1 раз )

    Другие торренты по теме:

  • Планета обезьян. Куда исчезают умные дети (Планета мавп. Куди зникають розумні діти) (2014) [MP4|1280x720] <HDRip H.264> скачать через торрент бесплатно
  • Подборка | toolarge.ru - Умные конспекты-матрёшки книг МИФ, Альпина и т.д. [42 конспекта] (2016) [HTML]
  • Ден Бланк | IQ в футболе. Как играют умные футболисты (2016) [EPUB, FB2, MOBI]
  • Интеллект пернатых. Умные птицы Южных островов / Beak and Brain: Genius Birds From Down Under (2013) SATRip
  • А. А. Бирюков | Умные устройства безопасности на микроконтроллерах Atmel (+files) (2017) [DJVU]
  • Татьяна Шишкина | #Умные женщины не спят в одиночку, или Как сорвать джек-пот в личной жизни (2017) [FB2, EPUB]
  • Малышарики - Умные песенки (2017) [MP3|320 Kbps] <Детские песни>
  • Умные головоломки v1.46 [Ru / En]


    • Комментарии (0):

      Информация

      Информация

        Посетители, находящиеся в группе Гости, не могут оставлять комментарии в данной новости.

        ↓ Меню




        ↓ Опрос

        Вы добавили сайт в закладки?
        Да
        Нет


        Популярное