.
Авторизация | Регистрация

torrentbox.xyz

» » Отмена / Undone (2019) WEB-DLRip (сезон 1, серии 1-3 из 8) NewStation торрент скачать бесплатно


    Отмена / Undone (2019) WEB-DLRip (сезон 1, серии 1-3 из 8) NewStation торрент скачать бесплатно

    Дата: 19-09-2019, 05:00 | .torrent скачали: 0

    Отмена / Undone (2019) WEB-DLRip (сезон 1, серии 1-3 из 8) NewStationПроизводство: США, Amazon Studios, Minnow Mountain, Submarine, Tornante Company
    Жанр: Мультфильм, фэнтези, драма
    Режиссер: Хиско Хулсинг

    Описание

    Сюжет расскажет о девочке, которая после автомобильной аварии получила возможность перемещаться во времени и пространстве. Она пытается использовать свои способности, чтобы спасти давно умершего отца.

    Релиз от: NewStation
    Продолжительность: ~00: 22: 00 серия
    Качество видео: WEB-DLRip
    Перевод: Многоголосый любительский (NewStation)
    Субтитры: отсутствуют
    Видео: Xvid, 700x400, ~1079 kbps
    Аудио #1: MP3, 2 ch, 128 kbps, - Русский (NewStation)
    Аудио #2: MP3, 2 ch, 128 kbps, - Английский
    01 The Crash
    02 The Hospital
    03 Handheld Blackjack

    Общее
    Полное имя : F: NewStationUndone.S01.WEBRip.NewStationUndone.S01E01.WEBRip.NewStation.avi
    Формат : AVI
    Формат/Информация : Audio Video Interleave
    Размер файла : 219 Мбайт
    Продолжительность : 22 м. 39 с.
    Общий поток : 1349 Кбит/сек
    Программа кодирования : VirtualDubMod 1.5.10.2 (build 2540/release)
    Библиотека кодирования : VirtualDubMod build 2540/release
    Видео
    Идентификатор : 0
    Формат : MPEG-4 Visual
    Профиль формата : Simple@L5
    Параметр BVOP формата : Нет
    Параметр QPel формата : Нет
    Параметр GMC формата : Без точки перехода
    Параметр матрицы формата : Default (H.263)
    Идентификатор кодека : XVID
    Идентификатор кодека/Подсказка : XviD
    Продолжительность : 22 м. 39 с.
    Битрейт : 1079 Кбит/сек
    Ширина : 720 пикселей
    Высота : 400 пикселей
    Соотношение сторон : 16: 9
    Частота кадров : 23, 976 (24000/1001) кадра/сек
    Цветовое пространство : YUV
    Субдискретизация насыщенности : 4: 2: 0
    Битовая глубина : 8 бит
    Тип развёртки : Прогрессивная
    Метод сжатия : С потерями
    Бит/(Пиксели*Кадры) : 0.156
    Размер потока : 175 Мбайт (80%)
    Библиотека кодирования : XviD 67
    Аудио #1
    Идентификатор : 1
    Формат : MPEG Audio
    Версия формата : Version 1
    Профиль формата : Layer 3
    Настройки формата : Joint stereo/MS Stereo
    Идентификатор кодека : 55
    Идентификатор кодека/Подсказка : MP3
    Продолжительность : 22 м. 39 с.
    Вид битрейта : Постоянный
    Битрейт : 128 Кбит/сек
    Каналы : 2 канала
    Частота : 48, 0 КГц
    Метод сжатия : С потерями
    Размер потока : 20, 7 Мбайт (9%)
    Выравнивание : Соединение по промежуткам
    Продолжительность промежутка : 42 мс. (1, 00 видеокадр)
    Время предзагрузки промежутка : 504 мс.
    Аудио #2
    Идентификатор : 2
    Формат : MPEG Audio
    Версия формата : Version 1
    Профиль формата : Layer 3
    Идентификатор кодека : 55
    Идентификатор кодека/Подсказка : MP3
    Продолжительность : 22 м. 39 с.
    Вид битрейта : Постоянный
    Битрейт : 128 Кбит/сек
    Каналы : 2 канала
    Частота : 48, 0 КГц
    Метод сжатия : С потерями
    Размер потока : 20, 7 Мбайт (9%)
    Выравнивание : Разделение по промежуткам
    Продолжительность промежутка : 42 мс. (1, 00 видеокадр)
    Время предзагрузки промежутка : 500 мс.
    Библиотека кодирования : LAMELAME_MAJOR_VERSI

    Скриншоты для ознакомления



    Все одноименные релизы в Клубе
    Время раздачи: 24/7 (круглосуточно) (до появления первых 3-5 скачавших)


    Онлайн видео Отмена



    Отмена/Undone (2019) WEB-DLRip (сезон 1, серии 1-3 из 8) NewStation
    Рейтинг →
     (голосов: 1, оценка 5/5, голосовать можно 1 раз )

    Другие торренты по теме:

  • Отмена / Undone (2019) WEB-DL [H.264 / 1080p-LQ] (сезон 1, серии 1-3 из 8) NewStation
  • Отмена / Undone (2019) WEB-DL [H.264 / 720p-LQ] (сезон 1, серии 1-3 из 8) NewStation


    • Комментарии (0):

      Информация

      Информация

        Посетители, находящиеся в группе Гости, не могут оставлять комментарии в данной новости.

        ↓ Меню




        ↓ Опрос

        Вы добавили сайт в закладки?
        Да
        Нет


        Популярное

        Футурама / Futurama (1999-2013) DVDRip (7 Сезонов, 140 серии) скачать через торрент бесплатно

        (скачиваний: 31)
        Роберт Кийосаки | Богатый папа, бедный папа для подростков (2014) [PDF, FB2]

        (скачиваний: 29)
        Анна Рольская | Основы каллиграфии и леттеринга (2017) [PDF]

        (скачиваний: 18)
        Питер Браун | Дикий робот. Спасение дикого робота [2 книги] (2019) [PDF, FB2]

        (скачиваний: 17)
        Оранжевая корова (2018-2019) WEB-DLRip [H.264 / 720p-LQ] (сезон 1, серии 1-3 из 20)

        (скачиваний: 15)
        Александр Никонов | Физика на пальцах. Для детей и родителей, которые хотят объяснять детям (2016) [PDF]

        (скачиваний: 14)
        Пластилинки. Циферки (2018-2019) WEB-DLRip [H.264 / 720p-LQ] (сезон 1, серии 1-6 из 10)

        (скачиваний: 13)
        Эдвард Хэлловэлл, Джон Рэйти | Почему я отвлекаюсь. Как распознать синдром дефицита внимания у взрослых и детей и что с ним делать (2016) [FB2]

        (скачиваний: 13)
        Джоан Кэтлин Роулинг | Гарри Поттер. Полное собрание [7 книг] (2005-2007) [PDF, DJVU, FB2, EPUB]

        (скачиваний: 13)
        Гого: приключение с английским / GOGOs Adventures with English (1995) WEBRip (Сезон 1, серий 39 из 39) [EN] скачать через торрент бесплатно

        (скачиваний: 12)