.
Авторизация | Регистрация

torrentbox.xyz

» » Приключения Реми / Без семьи / Remi sans famille (2018) BDRemux [H.264 / 1080p] торрент скачать бесплатно


    Приключения Реми / Без семьи / Remi sans famille (2018) BDRemux [H.264 / 1080p] торрент скачать бесплатно

    Дата: 19-09-2019, 05:00 | .torrent скачали: 0

    Приключения Реми / Без семьи / Remi sans famille (2018) BDRemux [H.264 / 1080p]Производство: Франция, Ciné, Jerico и др.
    Жанр: Мелодрама, приключения
    Режиссер: Антуан Блоссье
    Продюсер: Эрик Йехельманн, Филипп Руссле, Фабрис Джанферми

    Актеры
    Малом Пакуин, Даниель Отой, Виржини Ледуайен, Жонатан Заккаи, Жак Перрен, Людивин Санье, Альбан Массон, Зои Бойл, Николас Роу, Никола Даффетт

    Описание
    Удивительное путешествие по Франции маленького Реми в компании уличного музыканта, обезьянки и цирковой собаки. Вместе им предстоит пережить неожиданные встречи, приключения и испытания, чтобы раскрыть тайну происхождения мальчика.

    Возраст: 6+ (зрителям, достигшим 6 лет)
    Дата мировой премьеры: 30 сентября 2018
    Дата российской премьеры: 25 июля 2019, Пионер
    Цифровой релиз: 16 сентября 2019, Веста
    Релиз от: NNMClub
    Продолжительность: 01: 48: 11
    Качество видео: BDRemux 1080p
    Перевод: Профессиональный (дублированный)(iTunes)
    Субтитры: Английские (Full)
    Видео: AVC/H.264, 1920x1080, 29.8 Mbps, 24.000 fps
    Аудио 1 : AC-3, 6 ch, 384 Kbps | Русский
    Аудио 2 : DTS-HD MA, 6 ch, 3727 Kbps | Французский

    General
    Unique ID : 302771454505622129182736058460362128086 (0xE3C7A93AD27BA9EC3A4518A19D863AD6)
    Complete name : /Volumes/Promise Pegasus/Remi.sans.famille.BDRemux.1080p.pk.mkv
    Format : Matroska
    Format version : Version 4
    File size : 25.7 GiB
    Duration : 1h 48mn
    Overall bit rate mode : Variable
    Overall bit rate : 34.0 Mbps
    Movie name : Remi sans famille BDRemux 1080p pk
    Encoded date : UTC 2019-09-17 20: 46: 00
    Writing application : mkvmerge v37.0.0 (\'Leave It\') 64-bit
    Writing library : libebml v1.3.9 + libmatroska v1.5.2
    Video
    ID : 1
    Format : AVC
    Format/Info : Advanced Video Codec
    Format profile : High@L4.1
    Format settings : CABAC/4 Ref Frames
    Format settings, CABAC : Yes
    Format settings, ReFrames : 4 frames
    Codec ID : V_MPEG4/ISO/AVC
    Duration : 1h 48mn
    Bit rate mode : Variable
    Bit rate : 29.8 Mbps
    Maximum bit rate : 38.0 Mbps
    Width : 1 920 pixels
    Height : 1 080 pixels
    Display aspect ratio : 16: 9
    Frame rate mode : Constant
    Frame rate : 24.000 fps
    Color space : YUV
    Chroma subsampling : 4: 2: 0
    Bit depth : 8 bits
    Scan type : Progressive
    Bits/(Pixel*Frame) : 0.600
    Stream size : 22.5 GiB (88%)
    Language : French
    Default : Yes
    Forced : No
    Audio #1
    ID : 2
    Format : AC-3
    Format/Info : Audio Coding 3
    Commercial name : Dolby Digital
    Codec ID : A_AC3
    Duration : 1h 48mn
    Bit rate mode : Constant
    Bit rate : 384 Kbps
    Channel(s) : 6 channels
    Channel layout : L R C LFE Ls Rs
    Sampling rate : 48.0 KHz
    Frame rate : 31.250 fps (1536 SPF)
    Bit depth : 16 bits
    Compression mode : Lossy
    Stream size : 297 MiB (1%)
    Title : Russian Dub iTunes
    Language : Russian
    Service kind : Complete Main
    Default : Yes
    Forced : No
    Audio #2
    ID : 3
    Format : DTS XLL
    Format/Info : Digital Theater Systems
    Commercial name : DTS-HD Master Audio
    Codec ID : A_DTS
    Duration : 1h 48mn
    Bit rate mode : Variable
    Bit rate : 3 727 Kbps
    Channel(s) : 6 channels
    Channel layout : C L R Ls Rs LFE
    Sampling rate : 48.0 KHz
    Frame rate : 93.750 fps (512 SPF)
    Bit depth : 24 bits
    Compression mode : Lossless
    Stream size : 2.82 GiB (11%)
    Title : French Original
    Language : French
    Default : No
    Forced : No
    Text
    ID : 4
    Format : UTF-8
    Codec ID : S_TEXT/UTF8
    Codec ID/Info : UTF-8 Plain Text
    Duration : 1h 38mn
    Bit rate : 44 bps
    Count of elements : 960
    Stream size : 32.3 KiB (0%)
    Title : English full
    Language : English
    Default : No
    Forced : No
    Menu
    00: 00: 00.000 : en: Chapter 01
    00: 11: 34.125 : en: Chapter 02
    00: 20: 23.458 : en: Chapter 03
    00: 31: 56.166 : en: Chapter 04
    00: 39: 20.333 : en: Chapter 05
    00: 51: 20.000 : en: Chapter 06
    01: 00: 27.250 : en: Chapter 07
    01: 11: 19.375 : en: Chapter 08
    01: 21: 33.333 : en: Chapter 09
    01: 30: 19.041 : en: Chapter 10
    01: 43: 10.125 : en: Chapter 11

    Скриншоты для ознакомления



    Все одноименные релизы в Клубе
    Время раздачи: 24/7 (круглосуточно) (до появления первых 3-5 скачавших)


    Онлайн видео Приключения Реми



    Приключения Реми/Без семьи/Remi sans famille (2018) BDRemux [H.264/1080p]
    Рейтинг →
     (голосов: 1, оценка 4/5, голосовать можно 1 раз )

    Другие торренты по теме:

  • Приключения Реми / Без семьи / Remi sans famille (2018) BDRemux [H.264 / 1080p]
  • Приключения Реми / Без семьи / Remi sans famille (2018) BDRip [H.264 / 1080p]
  • Приключения Реми / Без семьи / Remi sans famille (2018) BDRip [H.265 / 1080p] [10-bit]
  • Приключения Реми / Без семьи / Remi sans famille (2018) BDRip [H.265 / 720p] [10-bit]
  • Приключения Реми / Без семьи / Remi sans famille (2018) BDRip [H.265] [10-bit]
  • Приключения Реми / Remi sans famille (2018) BDRip [720p] ATV
  • Приключения Реми / Remi sans famille (2018) BDRip [1080p] ATV


    • Комментарии (0):

      Информация

      Информация

        Посетители, находящиеся в группе Гости, не могут оставлять комментарии в данной новости.

        ↓ Меню




        ↓ Опрос

        Вы добавили сайт в закладки?
        Да
        Нет


        Популярное

        Футурама / Futurama (1999-2013) DVDRip (7 Сезонов, 140 серии) скачать через торрент бесплатно

        (скачиваний: 31)
        Роберт Кийосаки | Богатый папа, бедный папа для подростков (2014) [PDF, FB2]

        (скачиваний: 29)
        Анна Рольская | Основы каллиграфии и леттеринга (2017) [PDF]

        (скачиваний: 18)
        Питер Браун | Дикий робот. Спасение дикого робота [2 книги] (2019) [PDF, FB2]

        (скачиваний: 17)
        Оранжевая корова (2018-2019) WEB-DLRip [H.264 / 720p-LQ] (сезон 1, серии 1-3 из 20)

        (скачиваний: 15)
        Александр Никонов | Физика на пальцах. Для детей и родителей, которые хотят объяснять детям (2016) [PDF]

        (скачиваний: 14)
        Пластилинки. Циферки (2018-2019) WEB-DLRip [H.264 / 720p-LQ] (сезон 1, серии 1-6 из 10)

        (скачиваний: 13)
        Эдвард Хэлловэлл, Джон Рэйти | Почему я отвлекаюсь. Как распознать синдром дефицита внимания у взрослых и детей и что с ним делать (2016) [FB2]

        (скачиваний: 13)
        Джоан Кэтлин Роулинг | Гарри Поттер. Полное собрание [7 книг] (2005-2007) [PDF, DJVU, FB2, EPUB]

        (скачиваний: 13)
        Гого: приключение с английским / GOGOs Adventures with English (1995) WEBRip (Сезон 1, серий 39 из 39) [EN] скачать через торрент бесплатно

        (скачиваний: 12)