.
Авторизация | Регистрация

torrentbox.xyz

» » Приключения Реми / Без семьи / Remi sans famille (2018) BDRip [H.264 / 1080p] торрент скачать бесплатно


    Приключения Реми / Без семьи / Remi sans famille (2018) BDRip [H.264 / 1080p] торрент скачать бесплатно

    Дата: 19-09-2019, 05:00 | .torrent скачали: 0

    Приключения Реми / Без семьи / Remi sans famille (2018) BDRip [H.264 / 1080p]Производство: Франция/Jerico, TF1 Films Production
    Жанр: мелодрама, приключения
    Режиссер: Антуан Блоссье

    Актеры
    Малом Пакуин, Даниель Отой, Виржини Ледуайен, Жонатан Заккаи, Жак Перрен, Людивин Санье, Альбан Массон, Зои Бойл, Николас Роу, Никола Даффетт

    Описание

    Удивительное путешествие по Франции маленького Реми в компании уличного музыканта, обезьянки и цирковой собаки. Вместе им предстоит пережить неожиданные встречи, приключения и испытания, чтобы раскрыть тайну происхождения мальчика.

    Возраст: 6+ (зрителям, достигшим 6 лет)
    Дата мировой премьеры: 30 сентября 2018
    Дата российской премьеры: 25 июля 2019
    Продолжительность: 01: 48: 11
    Качество видео: BDRip
    Перевод: Дублированный (iTunes)
    Субтитры: нет
    Видео: AVC/H.264, 1920х804, ~7.5 Mbps
    Аудио #1: AC3, 6 ch, 384 kbps - русский
    Аудио #2: DTS, 6 ch, 768 kbps - французский

    x264 info: frame I: 1250 Avg QP: 17.25 size: 264269
    x264 info: frame P: 33844 Avg QP: 18.39 size: 75962
    x264 info: frame B: 120691 Avg QP: 19.21 size: 26292
    Unique ID : 70390524806203396761310081922452884524 (0x34F4B8D1E1B46A57654AF746A9D70C2C)
    Complete name : D: TempNNMРеми.2018.1080p.mkv
    Format : Matroska
    Format version : Version 4/Version 2
    File size : 6.53 GiB
    Duration : 1h 48mn
    Overall bit rate : 8 647 Kbps
    Writing library : Lavf57.71.100
    Video
    ID : 1
    Format : AVC
    Format/Info : Advanced Video Codec
    Format profile : High@L4.1
    Format settings, CABAC : Yes
    Format settings, ReFrames : 5 frames
    Codec ID : V_MPEG4/ISO/AVC
    Duration : 1h 48mn
    Bit rate : 7 500 Kbps
    Width : 1 920 pixels
    Height : 804 pixels
    Display aspect ratio : 2.40: 1
    Frame rate mode : Constant
    Frame rate : 24.000 fps
    Color space : YUV
    Chroma subsampling : 4: 2: 0
    Bit depth : 8 bits
    Scan type : Progressive
    Bits/(Pixel*Frame) : 0.202
    Stream size : 5.53 GiB (85%)
    Writing library : x264 core 157 r2935 545de2f
    Encoding settings : cabac=1/ref=5/deblock=1: -3: -3/analyse=0x3: 0x113/me=umh/subme=10/psy=1/psy_rd=1.05: 0.10/mixed_ref=1/me_range=24/chroma_me=1/trellis=2/8x8dct=1/cqm=0/deadzone=21, 11/fast_pskip=0/chroma_qp_offset=-3/threads=5/lookahead_threads=1/sliced_threads=0/nr=0/decimate=0/interlaced=0/bluray_compat=0/constrained_intra=0/bframes=7/b_pyramid=2/b_adapt=2/b_bias=0/direct=1/weightb=1/open_gop=0/weightp=2/keyint=240/keyint_min=24/scenecut=40/intra_refresh=0/rc=2pass/mbtree=0/bitrate=7500/ratetol=1.0/qcomp=0.70/qpmin=3/qpmax=69/qpstep=4/cplxblur=20.0/qblur=0.5/ip_ratio=1.40/pb_ratio=1.30/aq=2: 1.00
    Default : Yes
    Forced : No
    Audio #1
    ID : 2
    Format : AC-3
    Format/Info : Audio Coding 3
    Mode extension : CM (complete main)
    Format settings, Endianness : Big
    Codec ID : A_AC3
    Duration : 1h 48mn
    Bit rate mode : Constant
    Bit rate : 384 Kbps
    Channel(s) : 6 channels
    Channel positions : Front: L C R, Side: L R, LFE
    Sampling rate : 48.0 KHz
    Bit depth : 16 bits
    Compression mode : Lossy
    Stream size : 297 MiB (4%)
    Language : Russian
    Default : Yes
    Forced : No
    Audio #2
    ID : 3
    Format : DTS
    Format/Info : Digital Theater Systems
    Mode : 16
    Format settings, Endianness : Big
    Codec ID : A_DTS
    Duration : 1h 48mn
    Bit rate mode : Constant
    Bit rate : 768 Kbps
    Channel(s) : 6 channels
    Channel positions : Front: L C R, Side: L R, LFE
    Sampling rate : 48.0 KHz
    Bit depth : 16 bits
    Compression mode : Lossy
    Stream size : 594 MiB (9%)
    Language : French
    Default : No
    Forced : No

    Скриншоты для ознакомления



    Все одноименные релизы в Клубе
    Время раздачи: 24/7 (до появления первых 3-5 скачавших)


    Онлайн видео Приключения Реми



    Приключения Реми/Без семьи/Remi sans famille (2018) BDRip [H.264/1080p]
    Рейтинг →
     (голосов: 1, оценка 4/5, голосовать можно 1 раз )

    Другие торренты по теме:

  • Приключения Реми / Без семьи / Remi sans famille (2018) BDRemux [H.264 / 1080p]
  • Приключения Реми / Без семьи / Remi sans famille (2018) BDRemux [H.264 / 1080p]
  • Приключения Реми / Без семьи / Remi sans famille (2018) BDRip [H.265 / 1080p] [10-bit]
  • Приключения Реми / Без семьи / Remi sans famille (2018) BDRip [H.265 / 720p] [10-bit]
  • Приключения Реми / Без семьи / Remi sans famille (2018) BDRip [H.265] [10-bit]
  • Приключения Реми / Remi sans famille (2018) BDRip [720p] ATV
  • Приключения Реми / Remi sans famille (2018) BDRip [1080p] ATV


    • Комментарии (0):

      Информация

      Информация

        Посетители, находящиеся в группе Гости, не могут оставлять комментарии в данной новости.

        ↓ Меню




        ↓ Опрос

        Вы добавили сайт в закладки?
        Да
        Нет


        Популярное