.
Авторизация | Регистрация

torrentbox.xyz

» » Металионы / Metalions (2018-2019) WEB-DLRip [H.264 / 720p-LQ] (сезон 1, серии 1-52 из 52) [Обновляемая] торрент скачать бесплатно


    Металионы / Metalions (2018-2019) WEB-DLRip [H.264 / 720p-LQ] (сезон 1, серии 1-52 из 52) [Обновляемая] торрент скачать бесплатно

    Дата: 20-09-2019, 05:00 | .torrent скачали: 0

    Металионы / Metalions (2018-2019) WEB-DLRip [H.264 / 720p-LQ] (сезон 1, серии 1-52 из 52) [Обновляемая]Производство: Южная Корея
    Жанр: Мультсериал, Детский, Приключения, Фантастика
    Режиссер: Джин Хуэй Лу
    Персонажи: Илон, Элвин, Кира, Дональд

    Описание

    История о приключениях юного технического гения, команды его друзей и умных роботов-мехов, обладающих фантастической силой. Объединившись, дети и трансформеры храбро защищают мир от экологической катастрофы. Красочный и захватывающий мультсериал о защите природы в эпоху технического прогресса. Неугомонный мальчик Илон живет в мире, где люди уже не представляют своей жизни без чудо-техники. И бесстрашному первоиспытателю Илону по душе такая жизнь! Он не просто идет в ногу со временем, но и старается быть на шаг впереди, участвуя в экспериментальных исследованиях. Пара пустяков! – говорит Илон про любые трудности, не переставая удивлять собственных друзей. Нужно сказать, что с друзьями Илону повезло даже больше, чем с высоким интеллектом и врожденной храбростью. Вместе с рассудительным Элвином, красавицей Кирой и ценителем вкусностей Дональдом он защищает Землю от экологических угроз и коварных злодеев. А помогают им в этом умные трансформеры металионы, обладающие фантастическими способностями.
    Возраст: 6+ (зрителям, достигшим 6 лет)
    Рейтинг MPAA: PG (рекомендуется присутствие родителей)
    Релиз от: Natasha77
    Продолжительность: ~00: 12: 00 серия
    Качество видео: WEB-DLRip
    Перевод: Русский/Дублированный (Пифагор)
    Субтитры: Отсутствуют
    Видео: AVC/H.264, 1280x720, ~2569 kbps
    Аудио: Русский: AAC, 2 ch, 256 kbps
    Код: выделить все
    Общее
    Уникальный идентификатор : 175486362762701191684527797934936240609 (0x840571AFBA11FF680635C6382E9F31E1)
    Полное имя : E:31_Большая тайна Ангкор-Вата.mkv
    Формат : Matroska
    Версия формата : Version 4
    Размер файла : 251 Мбайт
    Продолжительность : 12 м. 25 с.
    Общий поток : 2822 Кбит/сек
    Дата кодирования : UTC 2019-09-19 20:33:39
    Программа кодирования : mkvmerge v37.0.0 (\'Leave It\') 32-bit
    Библиотека кодирования : libebml v1.3.9 + libmatroska v1.5.2
    Видео
    Идентификатор : 1
    Формат : AVC
    Формат/Информация : Advanced Video Codec
    Профиль формата : High@L4
    Настройки формата : CABAC/4 Ref Frames
    Параметр CABAC формата : Да
    Параметр RefFrames формата : 4 кадра
    Идентификатор кодека : V_MPEG4/ISO/AVC
    Продолжительность : 12 м. 25 с.
    Битрейт : 2569 Кбит/сек
    Ширина : 1280 пикселей
    Высота : 720 пикселей
    Соотношение сторон : 16:9
    Режим частоты кадров : Постоянный
    Частота кадров : 25, 000 кадров/сек
    Цветовое пространство : YUV
    Субдискретизация насыщенности : 4:2:0
    Битовая глубина : 8 бит
    Тип развёртки : Прогрессивная
    Бит/(Пиксели*Кадры) : 0.112
    Размер потока : 228 Мбайт (91%)
    Библиотека кодирования : x264 core 148
    Default : Да
    Forced : Нет
    Аудио
    Идентификатор : 2
    Формат : AAC LC
    Формат/Информация : Advanced Audio Codec Low Complexity
    Идентификатор кодека : A_AAC-2
    Продолжительность : 12 м. 25 с.
    Битрейт : 256 Кбит/сек
    Каналы : 2 канала
    ChannelLayout : L R
    Частота : 48, 0 КГц
    Частота кадров : 46, 875 кадров/сек (1024 SPF)
    Метод сжатия : С потерями
    Задержка видео : -43 мс.
    Размер потока : 22, 7 Мбайт (9%)
    Язык : Russian
    Default : Да
    Forced : Нет
    01_Дедово наследство. Часть 1
    02_Дедово наследство. Часть 2
    03_Подготовка
    04_Как часы
    05_Новый домашний робот
    06_Тайны Стоунхенджа
    07_В прошлое
    08_Паника в Окло
    09_Отвечая на вызов
    10_На хвосте
    11_Перевернув все камни
    12_Почти невидимые
    13_Горячая точка
    14_В горячей воде
    15_Топтание в Бушмиллсе
    16_Грабеж на дороге
    17_Кусочек Пизы
    18_Плюсы и минусы гравитации
    19_Вращающиеся головы
    20_Неприятный сюрприз
    21_По тонкому льду
    22_Падение вверх
    23_Разломы
    24_Узы
    25_Ледяной прием
    26_Копаясь в прошлом
    27_Серебряные цветы
    28_Противостояние
    29_Игры да забавы
    30_Медведь в беде
    31_Большая тайна Ангкор-Вата
    32_Гром и молния
    33_На льду
    34_Прорыв
    35_Беспокойная поездка
    36_Протест
    37_Приключения в Чехии
    38_Вызов
    39_Погоня за диким орлом
    40_Спасая положение
    41_Острый нюх
    42_Город огней
    43_За сокровищем
    44_Западня
    45_В ожидании Солнца
    46_Возрожденный огонь
    47_Искусство маскировки
    48_Видя звезды
    49_В воздухе
    50_Назад на Землю
    51_Наследие Леонарда. Часть 1
    52_Наследие Леонарда. Часть 2

    Скриншоты для ознакомления


    Металионы на NoNaMe Club


    Онлайн видео Металионы



    Металионы/Metalions (2018-2019) WEB-DLRip [H.264/720p-LQ] (сезон 1, серии 1-52 из 52) [Обновляемая]
    Рейтинг →
     (голосов: 1, оценка 3/5, голосовать можно 1 раз )

    Другие торренты по теме:



      Комментарии (0):

      Информация

      Информация

        Посетители, находящиеся в группе Гости, не могут оставлять комментарии в данной новости.

        ↓ Меню




        ↓ Опрос

        Вы добавили сайт в закладки?
        Да
        Нет


        Популярное

        Футурама / Futurama (1999-2013) DVDRip (7 Сезонов, 140 серии) скачать через торрент бесплатно

        (скачиваний: 31)
        Роберт Кийосаки | Богатый папа, бедный папа для подростков (2014) [PDF, FB2]

        (скачиваний: 29)
        Анна Рольская | Основы каллиграфии и леттеринга (2017) [PDF]

        (скачиваний: 18)
        Питер Браун | Дикий робот. Спасение дикого робота [2 книги] (2019) [PDF, FB2]

        (скачиваний: 17)
        Оранжевая корова (2018-2019) WEB-DLRip [H.264 / 720p-LQ] (сезон 1, серии 1-3 из 20)

        (скачиваний: 15)
        Александр Никонов | Физика на пальцах. Для детей и родителей, которые хотят объяснять детям (2016) [PDF]

        (скачиваний: 14)
        Пластилинки. Циферки (2018-2019) WEB-DLRip [H.264 / 720p-LQ] (сезон 1, серии 1-6 из 10)

        (скачиваний: 13)
        Эдвард Хэлловэлл, Джон Рэйти | Почему я отвлекаюсь. Как распознать синдром дефицита внимания у взрослых и детей и что с ним делать (2016) [FB2]

        (скачиваний: 13)
        Джоан Кэтлин Роулинг | Гарри Поттер. Полное собрание [7 книг] (2005-2007) [PDF, DJVU, FB2, EPUB]

        (скачиваний: 13)
        Гого: приключение с английским / GOGOs Adventures with English (1995) WEBRip (Сезон 1, серий 39 из 39) [EN] скачать через торрент бесплатно

        (скачиваний: 12)