.
Авторизация | Регистрация

torrentbox.xyz

» » Добро пожаловать в Вэйн / Welcome to the Wayne (2017) WEB-DL [H.264 / 1080p-LQ] (сезон 1, серии 20 из 20) SDI Media торрент скачать бесплатно


    Добро пожаловать в Вэйн / Welcome to the Wayne (2017) WEB-DL [H.264 / 1080p-LQ] (сезон 1, серии 20 из 20) SDI Media торрент скачать бесплатно

    Дата: 20-09-2019, 05:00 | .torrent скачали: 0

    Добро пожаловать в Вэйн / Welcome to the Wayne (2017) WEB-DL [H.264 / 1080p-LQ] (сезон 1, серии 20 из 20) SDI MediaПроизводство: Nickelodeon Productions, Yowza Animation
    Жанр: Фэнтези, Комедия, Приключения
    Режиссер: Tahir Rana, Rick Ritter

    Описание

    Сериал о приключениях Олли Тимберса и Энси Молины, двух десятилетних ребят, исследующих странное, безумное здание, в котором они живут — Вэйн. Справятся ли они со всеми его тайнами? Смотри, как двое друзей преодолевают разные испытания и ускользают из лап Шпионки из квартиры 8-I, и знакомься с бесконечным и непредсказуемым миром Вэйна, населённым уникальными в с своём роде жильцами.

    Возраст: 6+ (зрителям, достигшим 6 лет)
    Релиз от: TeamHD - BenderBEST
    Продолжительность: ~ 00: 22: 00 серия
    Качество видео: WEB-DL
    Перевод: Дублированный (SDI Media)
    Субтитры: английские (SDH)
    Видео: AVC/H.264, 1920x1080, ~4342 kbps
    Аудио1: AC3, 2 ch, 192 kbps - русский
    Аудио2: AC3, 2 ch, 224 kbps - английский

    бщее
    Уникальный идентификатор : 239314137260396770625715930722623958023 (0xB40A39EF39065850BD27F2F72A2E2C07)
    Полное имя : E: Welcome.to.the.Wayne.S01.1080p.AMZN.WEB-DL.Rus.Eng_TeamHDWelcome.to.the.Wayne.S01E01.Rise.and.Shine.Sleepyhead.1080p.AMZN.WEB-DL.Rus.Eng_TeamHD.mkv
    Формат : Matroska
    Версия формата : Version 4
    Размер файла : 774 Мбайт
    Продолжительность : 22 м. 43 с.
    Режим общего битрейта : Переменный
    Общий поток : 4760 Кбит/сек
    Название фильма : Welcome to the Wayne S01E01 - ReJliz TeamHD by BenderBEST
    Дата кодирования : UTC 2019-08-25 17: 54: 54
    Программа кодирования : mkvmerge v8.3.0 (\'Over the Horizon\') 64bit
    Библиотека кодирования : libebml v1.3.1 + libmatroska v1.4.2
    Видео
    Идентификатор : 1
    Формат : AVC
    Формат/Информация : Advanced Video Codec
    Профиль формата : High@L4
    Настройки формата : CABAC/4 Ref Frames
    Параметр CABAC формата : Да
    Параметр RefFrames формата : 4 кадра
    Идентификатор кодека : V_MPEG4/ISO/AVC
    Продолжительность : 22 м. 43 с.
    Вид битрейта : Переменный
    Битрейт : 4342 Кбит/сек
    Максимальный битрейт : 15, 0 Мбит/сек
    Ширина : 1920 пикселей
    Высота : 1080 пикселей
    Соотношение сторон : 16: 9
    Режим частоты кадров : Постоянный
    Частота кадров : 23, 976 (24000/1001) кадра/сек
    Цветовое пространство : YUV
    Субдискретизация насыщенности : 4: 2: 0
    Битовая глубина : 8 бит
    Тип развёртки : Прогрессивная
    Бит/(Пиксели*Кадры) : 0.087
    Размер потока : 706 Мбайт (91%)
    Язык : English
    Default : Да
    Forced : Да
    Цветовой диапазон : Limited
    Основные цвета : BT.709
    Характеристики трансфера : BT.709
    Коэффициенты матрицы : BT.709
    Аудио #1
    Идентификатор : 2
    Формат : AC-3
    Формат/Информация : Audio Coding 3
    Коммерческое название : Dolby Digital
    Идентификатор кодека : A_AC3
    Продолжительность : 22 м. 43 с.
    Вид битрейта : Постоянный
    Битрейт : 192 Кбит/сек
    Каналы : 2 канала
    ChannelLayout : L R
    Частота : 48, 0 КГц
    Частота кадров : 31, 250 кадров/сек (1536 SPF)
    Метод сжатия : С потерями
    Размер потока : 31, 2 Мбайт (4%)
    Заголовок : AC3 2.0 @ 192 kbps - DUB, Nickelodeon/SDI Media
    Язык : Russian
    ServiceKind/String : Complete Main
    Default : Да
    Forced : Да
    Аудио #2
    Идентификатор : 3
    Формат : E-AC-3
    Формат/Информация : Enhanced AC-3
    Коммерческое название : Dolby Digital Plus
    Идентификатор кодека : A_EAC3
    Продолжительность : 22 м. 43 с.
    Вид битрейта : Постоянный
    Битрейт : 224 Кбит/сек
    Каналы : 2 канала
    ChannelLayout : L R
    Частота : 48, 0 КГц
    Частота кадров : 31, 250 кадров/сек (1536 SPF)
    Метод сжатия : С потерями
    Размер потока : 36, 4 Мбайт (5%)
    Заголовок : EAC3 2.0 @ 224 kbps
    Язык : English
    ServiceKind/String : Complete Main
    Default : Нет
    Forced : Нет
    Текст
    Идентификатор : 4
    Формат : UTF-8
    Идентификатор кодека : S_TEXT/UTF8
    Идентификатор кодека/Информация : UTF-8 Plain Text
    Продолжительность : 22 м. 20 с.
    Битрейт : 99 бит/сек
    ElementCount : 571
    Размер потока : 16, 3 Кбайт (0%)
    Язык : English
    Default : Нет
    Forced : Нет


    Онлайн видео Добро пожаловать в Вэйн



    Добро пожаловать в Вэйн/Welcome to the Wayne (2017) WEB-DL [H.264/1080p-LQ] (сезон 1, серии 20 из 20) SDI Media
    Рейтинг →
     (голосов: 1, оценка 3/5, голосовать можно 1 раз )

    Другие торренты по теме:

  • Добро пожаловать в Нью-Йорк / Welcome to New York (2014) BDRemux [1080p] скачать через торрент бесплатно
  • Добро пожаловать в Нью-Йорк / Welcome to New York (2014) BDRip [1080p] ATV скачать через торрент бесплатно
  • Добро пожаловать в Нью-Йорк / Welcome to New York (2014) BDRip [720p] ATV
  • Добро пожаловать или посторонним вход воспрещён (1964) DVDRip [hand made colored] скачать через торрент бесплатно
  • Добро пожаловать в ПОП / Pop Redemption (2013) BDRip [H.264]
  • Добро пожаловать или Посторонним вход воспрещён (1964) BDRip [1080p] [hand made colored] скачать через торрент бесплатно
  • Добро пожаловать в Zомбилэнд / Zombieland (2009) BDRip [720p] [hand made 60fps] скачать через торрент бесплатно
  • Добро пожаловать в рай / Vice (2015) WEB-DL [720p] [EN / EN Sub]


    • Комментарии (0):

      Информация

      Информация

        Посетители, находящиеся в группе Гости, не могут оставлять комментарии в данной новости.

        ↓ Меню




        ↓ Опрос

        Вы добавили сайт в закладки?
        Да
        Нет


        Популярное