.
Авторизация | Регистрация

torrentbox.xyz

» » Синдбад и семь галактик / Sindbad & The 7 Galaxies (2018-2019) WEB-DLRip [H.264 / 720p-LQ] (сезон 1, серии 1-26 из 26) [Обновляемая] торрент скачать бесплатно


    Синдбад и семь галактик / Sindbad & The 7 Galaxies (2018-2019) WEB-DLRip [H.264 / 720p-LQ] (сезон 1, серии 1-26 из 26) [Обновляемая] торрент скачать бесплатно

    Дата: 20-09-2019, 05:00 | .torrent скачали: 0

    Синдбад и семь галактик / Sindbad & The 7 Galaxies (2018-2019) WEB-DLRip [H.264 / 720p-LQ] (сезон 1, серии 1-26 из 26) [Обновляемая]Производство: Великобритания
    Жанр: Мультсериал, Детский, Комедия, Приключения, Фантастика
    Режиссер: Пол Робинсон

    Актеры
    Том Уэйлэнд, Скотт Никол, Киара Уильямс, Кевин Скотт, Бекки Е. Шримптон, Крэйг Уэбстер
    Персонажи: Синдбад, Зак, Лана, Ли

    Описание

    Синдбад — добрый, смелый и очень самоуверенный школьник. Однажды он находит в своем подвале настоящий космический корабль и решает стать капитаном звездного экипажа. В свободное от уроков время он вместе с друзьями Заком, Ланой и Ли путешествует по семи галактикам, оказывая помощь людям и инопланетянам и борясь со злом в самых отдаленных уголках космоса. Вместе они изучают обычаи разных рас, расследуют межпланетные преступления и сражаются с фантастическими чудовищами.
    Возраст: 6+ (зрителям, достигшим 6 лет)
    Рейтинг MPAA: PG (рекомендуется присутствие родителей)
    Релиз от: Natasha77
    Продолжительность: ~00: 11: 00 серия
    Качество видео: WEB-DLRip
    Перевод: Русский/Дублированный (CLS MEDIA)
    Субтитры: Отсутствуют
    Видео: AVC/H.264, 1280x720, ~2569 kbps
    Аудио: Русский: AAC, 2 ch, 256 kbps
    Код: выделить все
    Общее
    Уникальный идентификатор : 12790574011263899043834040414911611946 (0x99F5FFCAF661BBA3960ECF66BCC442A)
    Полное имя : E:20_В мгновение ока.mkv
    Формат : Matroska
    Версия формата : Version 4
    Размер файла : 246 Мбайт
    Продолжительность : 12 м. 14 с.
    Общий поток : 2814 Кбит/сек
    Дата кодирования : UTC 2019-09-19 14:41:52
    Программа кодирования : mkvmerge v37.0.0 (\'Leave It\') 32-bit
    Библиотека кодирования : libebml v1.3.9 + libmatroska v1.5.2
    Видео
    Идентификатор : 1
    Формат : AVC
    Формат/Информация : Advanced Video Codec
    Профиль формата : High@L4
    Настройки формата : CABAC/4 Ref Frames
    Параметр CABAC формата : Да
    Параметр RefFrames формата : 4 кадра
    Идентификатор кодека : V_MPEG4/ISO/AVC
    Продолжительность : 12 м. 14 с.
    Битрейт : 2569 Кбит/сек
    Ширина : 1280 пикселей
    Высота : 720 пикселей
    Соотношение сторон : 16:9
    Режим частоты кадров : Постоянный
    Частота кадров : 25, 000 кадров/сек
    Цветовое пространство : YUV
    Субдискретизация насыщенности : 4:2:0
    Битовая глубина : 8 бит
    Тип развёртки : Прогрессивная
    Бит/(Пиксели*Кадры) : 0.112
    Размер потока : 224 Мбайт (91%)
    Библиотека кодирования : x264 core 148
    Default : Да
    Forced : Нет
    Аудио
    Идентификатор : 2
    Формат : AAC LC
    Формат/Информация : Advanced Audio Codec Low Complexity
    Идентификатор кодека : A_AAC-2
    Продолжительность : 12 м. 14 с.
    Битрейт : 256 Кбит/сек
    Каналы : 2 канала
    ChannelLayout : L R
    Частота : 48, 0 КГц
    Частота кадров : 46, 875 кадров/сек (1024 SPF)
    Метод сжатия : С потерями
    Задержка видео : -43 мс.
    Размер потока : 22, 4 Мбайт (9%)
    Язык : English
    Default : Да
    Forced : Нет
    01_Гонка
    02_Планета Гаджет
    03_Больше - меньше
    04_Все на борт
    05_Игра началась
    06_Перевертыш
    07_Увидеть проблему
    08_Двойные неприятности
    09_Поймать кракена
    10_Это Ли
    11_Планета - свалка
    12_Пахнет неприятностями
    13_Крутая команда
    14_Космические киты
    15_Король Зак
    16_Вулкан
    17_Крипер
    18_Забот полон рот
    19_Топ - черепашка
    20_В мгновение ока
    21_Мальтийский квил
    22_Металлический магнит
    23_Горячая вода
    24_Библиотекарь
    25_Шов времени
    26_Генезис

    Скриншоты для ознакомления


    Синдбад и семь галактик на NoNaMe Club


    Онлайн видео Синдбад и семь галактик



    Синдбад и семь галактик/Sindbad & The 7 Galaxies (2018-2019) WEB-DLRip [H.264/720p-LQ] (сезон 1, серии 1-26 из 26) [Обновляемая]
    Рейтинг →
     (голосов: 1, оценка 5/5, голосовать можно 1 раз )

    Другие торренты по теме:

  • М.Салье | Синдбад-Мореход (1991) [FB2] скачать через торрент бесплатно
  • Синдбад. Пираты семи штормов (2016) TS
  • Капитан Синдбад / Captain Sindbad (1963) WEB-DLRip [H.264]
  • Синдбад. Пираты семи штормов (2016) WEB-DLRip
  • Синдбад. Пираты семи штормов (2016) WEB-DL [H.264 / 1080p-LQ]
  • Синдбад. Пираты семи штормов (2016) WEB-DL [H.264 / 720p-LQ]
  • Синдбад. Пираты семи штормов (2016) WEB-DL [H.264]
  • Синдбад и Глаз Тигра / Sindbad and the Eye of the Tiger (1977) BDRip [H.264]


    • Комментарии (0):

      Информация

      Информация

        Посетители, находящиеся в группе Гости, не могут оставлять комментарии в данной новости.

        ↓ Меню




        ↓ Опрос

        Вы добавили сайт в закладки?
        Да
        Нет


        Популярное