.
Авторизация | Регистрация

torrentbox.xyz

» » Приключения Реми / Без семьи / Remi sans famille (2018) BDRip [H.265 / 720p] [10-bit] торрент скачать бесплатно


    Приключения Реми / Без семьи / Remi sans famille (2018) BDRip [H.265 / 720p] [10-bit] торрент скачать бесплатно

    Дата: 20-09-2019, 05:00 | .torrent скачали: 0

    Приключения Реми / Без семьи / Remi sans famille (2018) BDRip [H.265 / 720p] [10-bit]Производство: Франция/Jerico, TF1 Films Production
    Жанр: мелодрама, приключения
    Режиссер: Антуан Блоссье

    Актеры
    Малом Пакуин, Даниель Отой, Виржини Ледуайен, Жонатан Заккаи, Жак Перрен, Людивин Санье, Альбан Массон, Зои Бойл, Николас Роу, Никола Даффетт

    Описание

    Удивительное путешествие по Франции маленького Реми в компании уличного музыканта, обезьянки и цирковой собаки. Вместе им предстоит пережить неожиданные встречи, приключения и испытания, чтобы раскрыть тайну происхождения мальчика.

    Возраст: 6+ (зрителям, достигшим 6 лет)
    Дата мировой премьеры: 30 сентября 2018
    Дата российской премьеры: 25 июля 2019
    Продолжительность: 01: 48: 11
    Качество видео: BDRip (720p)
    Перевод: Дублированный
    Субтитры: отсутствуют
    Видео: HEVC/H.265, 1280х536, ~3927 Kbps
    Аудио #1: AC3, 6 ch, 384 kbps - русский (iTunes)
    Аудио #2: AC3, 6 ch, 448 kbps - французский

    Общее
    Уникальный идентификатор : 309448210429317016628776836972655696019 (0xE8CD8EB65F68A8283AAF107A8BD85893)
    Полное имя : Remi.sans.famille.2018.BDRip.720p.10bit.HEVC.mkv
    Формат : Matroska
    Версия формата : Version 4/Version 2
    Размер файла : 3, 67 Гбайт
    Продолжительность : 1 ч. 48 м.
    Общий поток : 4856 Кбит/сек
    Название фильма : Remi sans famille 2018
    Программа кодирования : XviD4PSP 8.0.86
    Библиотека кодирования : Lavf58.20.100
    ErrorDetectionType : Per level 1
    ENCODING_INFO : MATROSKA, WEBM MKV
    Видео
    Идентификатор : 1
    Формат : HEVC
    Формат/Информация : High Efficiency Video Coding
    Профиль формата : Main10@L4.1@High
    Идентификатор кодека : V_MPEGH/ISO/HEVC
    Продолжительность : 1 ч. 48 м.
    Битрейт : 3927 Кбит/сек
    Ширина : 1280 пикселей
    Высота : 536 пикселей
    Соотношение сторон : 2, 40: 1
    Режим частоты кадров : Постоянный
    Частота кадров : 24, 000 кадра/сек
    Цветовое пространство : YUV
    Субдискретизация насыщенности : 4: 2: 0
    Битовая глубина : 10 бит
    Бит/(Пиксели*Кадры) : 0.239
    Размер потока : 2, 97 Гбайт (81%)
    Язык : English
    Default : Да
    Forced : Нет
    Цветовой диапазон : Full
    ENCODING_INFO : H264 HEVC NVENC VBR 4000kbps HQ
    Аудио #1
    Идентификатор : 2
    Формат : AC-3
    Формат/Информация : Audio Coding 3
    Параметр Endianness формата : Big
    Идентификатор кодека : A_AC3
    Продолжительность : 1 ч. 48 м.
    Вид битрейта : Постоянный
    Битрейт : 384 Кбит/сек
    Каналы : 6 каналов
    Расположение каналов : Front: L C R, Side: L R, LFE
    Частота : 48, 0 КГц
    Частота кадров : 31, 250 кадров/сек (1536 SPF)
    Битовая глубина : 16 бит
    Метод сжатия : С потерями
    Размер потока : 297 Мбайт (8%)
    Заголовок : iTunes
    Язык : Russian
    ServiceKind/String : Complete Main
    Default : Да
    Forced : Нет
    ENCODING_INFO : AC3 COPY Безопасное
    Аудио #2
    Идентификатор : 3
    Формат : AC-3
    Формат/Информация : Audio Coding 3
    Параметр Endianness формата : Big
    Идентификатор кодека : A_AC3
    Продолжительность : 1 ч. 48 м.
    Вид битрейта : Постоянный
    Битрейт : 448 Кбит/сек
    Каналы : 6 каналов
    Расположение каналов : Front: L C R, Side: L R, LFE
    Частота : 48, 0 КГц
    Частота кадров : 31, 250 кадров/сек (1536 SPF)
    Битовая глубина : 16 бит
    Метод сжатия : С потерями
    Размер потока : 347 Мбайт (9%)
    Заголовок : Original
    Язык : French
    ServiceKind/String : Complete Main
    Default : Нет
    Forced : Нет
    ENCODING_INFO : DTS-HD MA AC3 CBR 448kbps
    Текст
    Идентификатор : 4
    Формат : UTF-8
    Идентификатор кодека : S_TEXT/UTF8
    Идентификатор кодека/Информация : UTF-8 Plain Text
    Заголовок : Full
    Язык : English
    Default : Да
    Forced : Нет
    ENCODING_INFO : SUBRIP COPY Быстрое
    Меню
    00: 00: 00.000 : : Chapter 01
    00: 11: 34.125 : : Chapter 02
    00: 20: 23.458 : : Chapter 03
    00: 31: 56.166 : : Chapter 04
    00: 39: 20.333 : : Chapter 05
    00: 51: 20.000 : : Chapter 06
    01: 00: 27.250 : : Chapter 07
    01: 11: 19.375 : : Chapter 08
    01: 21: 33.333 : : Chapter 09
    01: 30: 19.041 : : Chapter 10
    01: 43: 10.125 : : Chapter 11

    Скриншоты для ознакомления



    Все одноименные релизы в Клубе
    Время раздачи: 24/7 (до появления первых 3-5 скачавших)


    Онлайн видео Приключения Реми



    Приключения Реми/Без семьи/Remi sans famille (2018) BDRip [H.265/720p] [10-bit]
    Рейтинг →
     (голосов: 1, оценка 4/5, голосовать можно 1 раз )

    Другие торренты по теме:

  • Приключения Реми / Без семьи / Remi sans famille (2018) BDRemux [H.264 / 1080p]
  • Приключения Реми / Без семьи / Remi sans famille (2018) BDRemux [H.264 / 1080p]
  • Приключения Реми / Без семьи / Remi sans famille (2018) BDRip [H.264 / 1080p]
  • Приключения Реми / Без семьи / Remi sans famille (2018) BDRip [H.265 / 1080p] [10-bit]
  • Приключения Реми / Без семьи / Remi sans famille (2018) BDRip [H.265] [10-bit]
  • Приключения Реми / Remi sans famille (2018) BDRip [720p] ATV
  • Приключения Реми / Remi sans famille (2018) BDRip [1080p] ATV


    • Комментарии (0):

      Информация

      Информация

        Посетители, находящиеся в группе Гости, не могут оставлять комментарии в данной новости.

        ↓ Меню




        ↓ Опрос

        Вы добавили сайт в закладки?
        Да
        Нет


        Популярное