.
Авторизация | Регистрация

torrentbox.xyz

» » Приключения Реми / Без семьи / Remi sans famille (2018) BDRip [H.265] [10-bit] торрент скачать бесплатно


    Приключения Реми / Без семьи / Remi sans famille (2018) BDRip [H.265] [10-bit] торрент скачать бесплатно

    Дата: 20-09-2019, 05:00 | .torrent скачали: 0

    Приключения Реми / Без семьи / Remi sans famille (2018) BDRip [H.265] [10-bit]Производство: Франция/Jerico, TF1 Films Production
    Жанр: мелодрама, приключения
    Режиссер: Антуан Блоссье

    Актеры
    Малом Пакуин, Даниель Отой, Виржини Ледуайен, Жонатан Заккаи, Жак Перрен, Людивин Санье, Альбан Массон, Зои Бойл, Николас Роу, Никола Даффетт

    Описание

    Удивительное путешествие по Франции маленького Реми в компании уличного музыканта, обезьянки и цирковой собаки. Вместе им предстоит пережить неожиданные встречи, приключения и испытания, чтобы раскрыть тайну происхождения мальчика.

    Возраст: 6+ (зрителям, достигшим 6 лет)
    Дата мировой премьеры: 30 сентября 2018
    Дата российской премьеры: 25 июля 2019
    Продолжительность: 01: 48: 11
    Качество видео: BDRip
    Перевод: Дублированный (iTunes)
    Субтитры: отсутствуют
    Видео: HEVC/H.265, 720х302, ~1955 Kbps
    Аудио #1: AC3, 2 ch, 128 kbps - русский (iTunes)
    Аудио #2: AC3, 2 ch, 128 kbps - французский

    Общее
    Уникальный идентификатор : 50692351888601150956281764495616876390 (0x2622FDE993F6BAB808BC699FE3BF9F66)
    Полное имя : Remi.sans.famille.2018.BDRip.10bit.HEVC.mkv
    Формат : Matroska
    Версия формата : Version 4/Version 2
    Размер файла : 1, 70 Гбайт
    Продолжительность : 1 ч. 48 м.
    Общий поток : 2255 Кбит/сек
    Название фильма : Remi sans famille 2018
    Программа кодирования : XviD4PSP 8.0.86
    Библиотека кодирования : Lavf58.20.100
    ErrorDetectionType : Per level 1
    ENCODING_INFO : MATROSKA, WEBM MKV
    Видео
    Идентификатор : 1
    Формат : HEVC
    Формат/Информация : High Efficiency Video Coding
    Профиль формата : Main10@L4.1@High
    Идентификатор кодека : V_MPEGH/ISO/HEVC
    Продолжительность : 1 ч. 48 м.
    Битрейт : 1955 Кбит/сек
    Ширина : 720 пикселей
    Высота : 302 пикселя
    Соотношение сторон : 2, 40: 1
    Режим частоты кадров : Постоянный
    Частота кадров : 24, 000 кадра/сек
    Цветовое пространство : YUV
    Субдискретизация насыщенности : 4: 2: 0
    Битовая глубина : 10 бит
    Бит/(Пиксели*Кадры) : 0.375
    Размер потока : 1, 48 Гбайт (87%)
    Язык : English
    Default : Да
    Forced : Нет
    Цветовой диапазон : Full
    ENCODING_INFO : H264 HEVC NVENC VBR 2000kbps HQ
    Аудио #1
    Идентификатор : 2
    Формат : AC-3
    Формат/Информация : Audio Coding 3
    Параметр Endianness формата : Big
    Идентификатор кодека : A_AC3
    Продолжительность : 1 ч. 48 м.
    Вид битрейта : Постоянный
    Битрейт : 128 Кбит/сек
    Каналы : 2 канала
    Расположение каналов : Front: L R
    Частота : 48, 0 КГц
    Частота кадров : 31, 250 кадров/сек (1536 SPF)
    Битовая глубина : 16 бит
    Метод сжатия : С потерями
    Размер потока : 99, 0 Мбайт (6%)
    Заголовок : iTunes
    Язык : Russian
    ServiceKind/String : Complete Main
    Default : Да
    Forced : Нет
    ENCODING_INFO : AC3 AC3 CBR 128kbps
    Аудио #2
    Идентификатор : 3
    Формат : AC-3
    Формат/Информация : Audio Coding 3
    Параметр Endianness формата : Big
    Идентификатор кодека : A_AC3
    Продолжительность : 1 ч. 48 м.
    Вид битрейта : Постоянный
    Битрейт : 128 Кбит/сек
    Каналы : 2 канала
    Расположение каналов : Front: L R
    Частота : 48, 0 КГц
    Частота кадров : 31, 250 кадров/сек (1536 SPF)
    Битовая глубина : 16 бит
    Метод сжатия : С потерями
    Размер потока : 99, 0 Мбайт (6%)
    Заголовок : Original
    Язык : French
    ServiceKind/String : Complete Main
    Default : Нет
    Forced : Нет
    ENCODING_INFO : DTS-HD MA AC3 CBR 128kbps
    Текст
    Идентификатор : 4
    Формат : UTF-8
    Идентификатор кодека : S_TEXT/UTF8
    Идентификатор кодека/Информация : UTF-8 Plain Text
    Заголовок : Full
    Язык : English
    Default : Да
    Forced : Нет
    ENCODING_INFO : SUBRIP COPY Быстрое
    Меню
    00: 00: 00.000 : : Chapter 01
    00: 11: 34.125 : : Chapter 02
    00: 20: 23.458 : : Chapter 03
    00: 31: 56.166 : : Chapter 04
    00: 39: 20.333 : : Chapter 05
    00: 51: 20.000 : : Chapter 06
    01: 00: 27.250 : : Chapter 07
    01: 11: 19.375 : : Chapter 08
    01: 21: 33.333 : : Chapter 09
    01: 30: 19.041 : : Chapter 10
    01: 43: 10.125 : : Chapter 11

    Скриншоты для ознакомления



    Все одноименные релизы в Клубе
    Время раздачи: 24/7 (до появления первых 3-5 скачавших)


    Онлайн видео Приключения Реми



    Приключения Реми/Без семьи/Remi sans famille (2018) BDRip [H.265] [10-bit]
    Рейтинг →
     (голосов: 1, оценка 3/5, голосовать можно 1 раз )

    Другие торренты по теме:

  • Приключения Реми / Без семьи / Remi sans famille (2018) BDRemux [H.264 / 1080p]
  • Приключения Реми / Без семьи / Remi sans famille (2018) BDRemux [H.264 / 1080p]
  • Приключения Реми / Без семьи / Remi sans famille (2018) BDRip [H.264 / 1080p]
  • Приключения Реми / Без семьи / Remi sans famille (2018) BDRip [H.265 / 1080p] [10-bit]
  • Приключения Реми / Без семьи / Remi sans famille (2018) BDRip [H.265 / 720p] [10-bit]
  • Приключения Реми / Remi sans famille (2018) BDRip [720p] ATV
  • Приключения Реми / Remi sans famille (2018) BDRip [1080p] ATV


    • Комментарии (0):

      Информация

      Информация

        Посетители, находящиеся в группе Гости, не могут оставлять комментарии в данной новости.

        ↓ Меню




        ↓ Опрос

        Вы добавили сайт в закладки?
        Да
        Нет


        Популярное

        Футурама / Futurama (1999-2013) DVDRip (7 Сезонов, 140 серии) скачать через торрент бесплатно

        (скачиваний: 31)
        Роберт Кийосаки | Богатый папа, бедный папа для подростков (2014) [PDF, FB2]

        (скачиваний: 29)
        Анна Рольская | Основы каллиграфии и леттеринга (2017) [PDF]

        (скачиваний: 18)
        Питер Браун | Дикий робот. Спасение дикого робота [2 книги] (2019) [PDF, FB2]

        (скачиваний: 17)
        Оранжевая корова (2018-2019) WEB-DLRip [H.264 / 720p-LQ] (сезон 1, серии 1-3 из 20)

        (скачиваний: 15)
        Александр Никонов | Физика на пальцах. Для детей и родителей, которые хотят объяснять детям (2016) [PDF]

        (скачиваний: 14)
        Пластилинки. Циферки (2018-2019) WEB-DLRip [H.264 / 720p-LQ] (сезон 1, серии 1-6 из 10)

        (скачиваний: 13)
        Эдвард Хэлловэлл, Джон Рэйти | Почему я отвлекаюсь. Как распознать синдром дефицита внимания у взрослых и детей и что с ним делать (2016) [FB2]

        (скачиваний: 13)
        Джоан Кэтлин Роулинг | Гарри Поттер. Полное собрание [7 книг] (2005-2007) [PDF, DJVU, FB2, EPUB]

        (скачиваний: 13)
        Гого: приключение с английским / GOGOs Adventures with English (1995) WEBRip (Сезон 1, серий 39 из 39) [EN] скачать через торрент бесплатно

        (скачиваний: 12)