.
Авторизация | Регистрация

torrentbox.xyz

» » Как Иванушка-дурачок за чудом ходил (1977) DVDRip [H.264] [PR] торрент скачать бесплатно


    Как Иванушка-дурачок за чудом ходил (1977) DVDRip [H.264] [PR] торрент скачать бесплатно

    Дата: 21-09-2019, 05:00 | .torrent скачали: 0

    Как Иванушка-дурачок за чудом ходил (1977) DVDRip [H.264] [PR]Производство: СССР, Ленфильм
    Жанр: Фэнтези, семейный
    Режиссер: Надежда Кошеверова

    Актеры
    Олег Даль, Елена Проклова, Михаил Глузский, Татьяна Пельтцер, Владимир Этуш, Андрей Попов, Александр Бениаминов, Мария Барабанова, Игорь Дмитриев, Михаил Боярский

    Описание

    Чтобы спасти свою любимую от злого недуга, Иванушка отправляется за тридевять земель, побеждает коварство богатого купца Марко, жульничество Феди-конокрада, недоверие волшебника Лукомора и завоевывает любовь Насти.

    Возраст: 0+ (нет возрастных ограничений)
    Релиз от: Korsar
    Продолжительность: 01: 25: 01
    Качество видео: DVDRip
    Видео: AVC/H.264, 720х438@1024x438, ~2 850 kbps
    Аудио: AC3, 6 ch, 448 kbps
    Аудио: AC3, 1 ch, 224 kbps

    Общее
    Уникальный идентификатор : 214955434843203974952719845516111841300 (0xA1B6E92E99F3E472A84BB0677CA10814)
    Полное имя : Как Иванушка-дурачок за чудом ходил 1977_DVDRip-AVC_KORSAR.mkv
    Формат : Matroska
    Версия формата : Version 2
    Размер файла : 2, 09 Гбайт
    Продолжительность : 1 ч. 25 м.
    Общий поток : 3524 Кбит/сек
    Название фильма : Как Иванушка-дурачок за чудом ходил 1977 от mister.hats
    Дата кодирования : UTC 2019-03-27 02: 37: 11
    Программа кодирования : mkvmerge v5.8.0 (\'No Sleep/Pillow\') built on Sep 2 2012 15: 37: 04
    Библиотека кодирования : libebml v1.2.3 + libmatroska v1.3.0
    Видео
    Идентификатор : 1
    Формат : AVC
    Формат/Информация : Advanced Video Codec
    Профиль формата : High@L4.1
    Настройки формата : CABAC/15 Ref Frames
    Параметр CABAC формата : Да
    Параметр RefFrames формата : 15 кадров
    Идентификатор кодека : V_MPEG4/ISO/AVC
    Продолжительность : 1 ч. 25 м.
    Битрейт : 2850 Кбит/сек
    Ширина : 720 пикселей
    Высота : 438 пикселей
    Соотношение сторон : 2, 35: 1
    Режим частоты кадров : Постоянный
    Частота кадров : 25, 000 кадров/сек
    Цветовое пространство : YUV
    Субдискретизация насыщенности : 4: 2: 0
    Битовая глубина : 8 бит
    Тип развёртки : Прогрессивная
    Бит/(Пиксели*Кадры) : 0.361
    Размер потока : 1, 65 Гбайт (79%)
    Библиотека кодирования : x264 core 152 r2851kMod ba24899
    Настройки программы : cabac=1/ref=15/deblock=1: -2: -1/analyse=0x3: 0x133/me=umh/subme=11/psy=1/fade_compensate=0.00/psy_rd=1.05: 0.10/mixed_ref=1/me_range=48/chroma_me=1/trellis=2/8x8dct=1/cqm=0/deadzone=21, 11/fast_pskip=0/chroma_qp_offset=-3/threads=12/lookahead_threads=3/sliced_threads=0/nr=0/decimate=0/interlaced=0/bluray_compat=0/constrained_intra=0/bframes=10/b_pyramid=2/b_adapt=2/b_bias=0/direct=3/weightb=1/open_gop=0/weightp=2/keyint=250/keyint_min=25/scenecut=40/intra_refresh=0/rc_lookahead=40/rc=2pass/mbtree=0/bitrate=2850/ratetol=1.0/qcomp=0.60/qpmin=0/qpmax=39/qpstep=4/cplxblur=20.0/qblur=0.5/vbv_maxrate=50000/vbv_bufsize=62500/nal_hrd=none/filler=0/ip_ratio=1.15/pb_ratio=1.30/aq=1: 1.00
    Язык : English
    Default : Да
    Forced : Нет
    Цветовой диапазон : Limited
    Основные цвета : BT.601 PAL
    Характеристики трансфера : BT.470 System B, BT.470 System G
    Коэффициенты матрицы : BT.470 System B, BT.470 System G
    Аудио #1
    Идентификатор : 2
    Формат : AC-3
    Формат/Информация : Audio Coding 3
    Параметр Endianness формата : Big
    Идентификатор кодека : A_AC3
    Продолжительность : 1 ч. 25 м.
    Вид битрейта : Постоянный
    Битрейт : 448 Кбит/сек
    Каналы : 6 каналов
    Расположение каналов : Front: L C R, Side: L R, LFE
    Частота : 48, 0 КГц
    Частота кадров : 31, 250 кадров/сек (1536 SPF)
    Битовая глубина : 16 бит
    Метод сжатия : С потерями
    Задержка видео : 220 мс.
    Размер потока : 272 Мбайт (13%)
    Язык : Russian
    Default : Да
    Forced : Нет
    Аудио #2
    Идентификатор : 3
    Формат : AC-3
    Формат/Информация : Audio Coding 3
    Параметр Endianness формата : Big
    Идентификатор кодека : A_AC3
    Продолжительность : 1 ч. 25 м.
    Вид битрейта : Постоянный
    Битрейт : 224 Кбит/сек
    Каналы : 1 канал
    Расположение каналов : Front: C
    Частота : 48, 0 КГц
    Частота кадров : 31, 250 кадров/сек (1536 SPF)
    Битовая глубина : 16 бит
    Метод сжатия : С потерями
    Задержка видео : 218 мс.
    Размер потока : 136 Мбайт (6%)
    Язык : Russian
    Default : Нет
    Forced : Нет
    Меню
    00: 00: 00.000 : en: Chapter 1
    00: 05: 43.640 : en: Chapter 2
    00: 12: 43.720 : en: Chapter 3
    00: 17: 17.600 : en: Chapter 4
    00: 26: 02.200 : en: Chapter 5
    00: 32: 56.040 : en: Chapter 6
    00: 40: 04.680 : en: Chapter 7
    00: 50: 58.600 : en: Chapter 8
    01: 00: 29.040 : en: Chapter 9
    01: 11: 58.480 : en: Chapter 10
    01: 22: 21.480 : en: Chapter 11

    Скриншоты для ознакомления



    Все одноименные релизы в Клубе
    Время раздачи: 24/7 (мультитрекерная раздача) (до появления первых 3-5 скачавших)


    Онлайн видео Как Иванушка



    Как Иванушка-дурачок за чудом ходил (1977) DVDRip [H.264] [PR]
    Рейтинг →
     (голосов: 1, оценка 5/5, голосовать можно 1 раз )

    Другие торренты по теме:

  • Как Иванушка–дурачок за чудом ходил (1977) DVD5
  • Как Иванушка-дурачок за чудом ходил (1977) DVDRip [H.264]
  • Как Иванушка – дурачок за чудом ходил (1977) DVDRip [H.264]


    • Комментарии (0):

      Информация

      Информация

        Посетители, находящиеся в группе Гости, не могут оставлять комментарии в данной новости.

        ↓ Меню




        ↓ Опрос

        Вы добавили сайт в закладки?
        Да
        Нет


        Популярное