.
Авторизация | Регистрация

torrentbox.xyz

» » История игрушек 4 / Toy Story 4 (2019) WEB-DL Rip [H.264 / 1080p-LQ] (MVO) торрент скачать бесплатно


    История игрушек 4 / Toy Story 4 (2019) WEB-DL Rip [H.264 / 1080p-LQ] (MVO) торрент скачать бесплатно

    Дата: 21-09-2019, 05:00 | .torrent скачали: 0

    История игрушек 4 / Toy Story 4 (2019) WEB-DL Rip [H.264 / 1080p-LQ] (MVO)Производство: США, Walt Disney Studios Motion Pictures
    Жанр: Мультфильм, фэнтези, комедия, приключения, семейный
    Режиссер: Джош Кули

    Описание

    Космический рейнджер Баз Лайтер, ковбой Вуди, собака Спиралька, тиранозавр Рекс и вся команда игрушек снова вместе, и они как никогда готовы к приключениям. С тех пор как Энди поступил в колледж, игрушки поселились в доме своей новой хозяйки Бонни. В свой первый день в школе Бонни смастерила себе из отходов новую игрушку Вилкинса, что положит начало череде событий, в которой найдется место и путешествиям с погонями, и знакомству с новыми игрушками, и встречам с некоторыми из старых друзей, и даже романтической истории.

    Возраст: 6+ (зрителям, достигшим 6 лет)
    Рейтинг MPAA: G (нет возрастных ограничений)
    Дата мировой премьеры: 11 июня 2019
    Дата российской премьеры: 20 июня 2019
    Продолжительность: 01: 39: 51
    Качество видео: WEB-DLRip
    Перевод: Профессиональный многоголосый (HDRezka Studio)
    Субтитры: английские
    Видео: AVC/H.264, 1920x800, ~5446 kbps
    Аудио 1: AC3, 2 ch, 192 kbps, Русский (MVO HDRezka Studio)
    Аудио 2: AC3, 2 ch, 192 kbps, Английский

    Общее
    Уникальный идентификатор : 241425087847562466016956633490674176409 (0xB5A0C7D57AD73D03983449F5DF605199))
    Полное имя : D: FILMSZALIVToy.Story.4.2019.1080p.mkv
    Формат : Matroska
    Версия формата : Version 4
    Размер файла : 4, 03 Гбайт
    Продолжительность : 1 ч. 39 м.
    Общий поток : 5782 Кбит/сек
    Дата кодирования : UTC 2019-09-19 13: 14: 00
    Программа кодирования : mkvmerge v9.2.0 (\'Photograph\') 64bit
    Библиотека кодирования : libebml v1.3.3 + libmatroska v1.4.4
    Видео
    Идентификатор : 1
    Формат : AVC
    Формат/Информация : Advanced Video Codec
    Профиль формата : High@L4
    Настройки формата : CABAC/4 Ref Frames
    Параметр CABAC формата : Да
    Параметр RefFrames формата : 4 кадра
    Идентификатор кодека : V_MPEG4/ISO/AVC
    Продолжительность : 1 ч. 39 м.
    Битрейт : 5446 Кбит/сек
    Ширина : 1920 пикселей
    Высота : 800 пикселей
    Соотношение сторон : 2, 40: 1
    Режим частоты кадров : Постоянный
    Частота кадров : 23, 976 (23976/1000) кадра/сек
    Частота кадров в оригинале : 23, 976 (24000/1001) кадра/сек
    Цветовое пространство : YUV
    Субдискретизация насыщенности : 4: 2: 0
    Битовая глубина : 8 бит
    Тип развёртки : Прогрессивная
    Бит/(Пиксели*Кадры) : 0.148
    Размер потока : 3, 77 Гбайт (93%)
    Заголовок : -EVO
    Язык : English
    Default : Да
    Forced : Нет
    Аудио #1
    Идентификатор : 2
    Формат : AC-3
    Формат/Информация : Audio Coding 3
    Коммерческое название : Dolby Digital
    Идентификатор кодека : A_AC3
    Продолжительность : 1 ч. 39 м.
    Вид битрейта : Постоянный
    Битрейт : 192 Кбит/сек
    Каналы : 2 канала
    ChannelLayout : L R
    Частота : 48, 0 КГц
    Частота кадров : 31, 250 кадров/сек (1536 SPF)
    Битовая глубина : 16 бит
    Метод сжатия : С потерями
    Размер потока : 136 Мбайт (3%)
    Заголовок : MVO HDRezka
    Язык : Russian
    ServiceKind/String : Complete Main
    Default : Да
    Forced : Нет
    Аудио #2
    Идентификатор : 3
    Формат : AC-3
    Формат/Информация : Audio Coding 3
    Коммерческое название : Dolby Digital
    Идентификатор кодека : A_AC3
    Продолжительность : 1 ч. 39 м.
    Вид битрейта : Постоянный
    Битрейт : 192 Кбит/сек
    Каналы : 2 канала
    ChannelLayout : L R
    Частота : 48, 0 КГц
    Частота кадров : 31, 250 кадров/сек (1536 SPF)
    Битовая глубина : 16 бит
    Метод сжатия : С потерями
    Задержка видео : 67 мс.
    Размер потока : 136 Мбайт (3%)
    Заголовок : English
    Язык : English
    ServiceKind/String : Complete Main
    Default : Нет
    Forced : Нет
    Текст
    Идентификатор : 4
    Формат : UTF-8
    Идентификатор кодека : S_TEXT/UTF8
    Идентификатор кодека/Информация : UTF-8 Plain Text
    Продолжительность : 1 ч. 39 м.
    Битрейт : 64 бит/сек
    ElementCount : 1813
    Размер потока : 47, 1 Кбайт (0%)
    Заголовок : English
    Язык : English
    Default : Нет
    Forced : Нет

    Скриншоты для ознакомления



    Все одноименные релизы в Клубе
    c 5 до 19 мск (до появления первых 3-5 скачавших)


    Онлайн видео История игрушек 4



    История игрушек 4/Toy Story 4 (2019) WEB-DL Rip [H.264/1080p-LQ] (MVO)
    Рейтинг →
     (голосов: 1, оценка 4/5, голосовать можно 1 раз )

    Другие торренты по теме:

  • История игрушек: Время забыть / Toy Story That Time Forgot (2014) HDTVRip [H.264 / 720p-LQ] [EN] скачать через торрент бесплатно
  • История игрушек: Время забыть / Toy Story That Time Forgot (2014) HDTVRip [H.264 / 720p-LQ]
  • История игрушек: Время забыть / Toy Story That Time Forgot (2014) HDTVRip
  • История игрушек. Оловянные солдатики (2013) HDTVRip
  • История игрушек: Самозванец / Toy Story Toons: Small Fry (2011) BDRip [H.264 / 1080p]
  • История игрушек: Самозванец / Toy Story Toons: Small Fry (2011) BDRip [H.264 / 720p]
  • История игрушек: Самозванец / Toy Story Toons: Small Fry (2011) BDRemux [H.264 / 1080p]
  • История игрушек: Веселозавр Рекс / Toy Story Toons: Partysaurus Rex (2012) WEB-DL [H.264 / 1080p]


    • Комментарии (0):

      Информация

      Информация

        Посетители, находящиеся в группе Гости, не могут оставлять комментарии в данной новости.

        ↓ Меню




        ↓ Опрос

        Вы добавили сайт в закладки?
        Да
        Нет


        Популярное