.
Авторизация | Регистрация

torrentbox.xyz

» » Уоллес и Громит: Проклятие Кролика-Оборотня / Wallace & Gromit: the Curse of the Were-Rabbit (2005) BDRip [H.264 / 1080p] торрент скачать бесплатно


    Уоллес и Громит: Проклятие Кролика-Оборотня / Wallace & Gromit: the Curse of the Were-Rabbit (2005) BDRip [H.264 / 1080p] торрент скачать бесплатно

    Дата: 23-09-2019, 05:00 | .torrent скачали: 0

    Уоллес и Громит: Проклятие Кролика-Оборотня / Wallace & Gromit: the Curse of the Were-Rabbit (2005) BDRip [H.264 / 1080p]Производство: США/Aardman Animations, DreamWorks Animation
    Жанр: Комедия, Приключения
    Режиссер: Ник Парк, Стив Бокс

    Описание

    Ежегодный конкурс гигантских овощей приближается, и овощемания охватывает всех соседей Уоллеса и Громита. Два предприимчивых друга решили заработать денег на борьбе с грызунами, воспользовавшись своим изобретением Анти-Песто. Но внезапно огромное таинственное животное начало терроризировать округу, уничтожая овощи, которые могли претендовать на главный приз конкурса. В отчаянье, пытаясь спасти мероприятие, его организатор леди Тоттингтон обещает царские почести тому, кто поймает зверя и спасет праздник.

    Возраст: 12+ (зрителям, достигшим 12 лет)
    Рейтинг MPAA: G (нет возрастных ограничений)
    Релиз от: RG NNM Club Video
    Продолжительность: 01: 24: 59
    Качество видео: BDRip
    Перевод: Дублированный, многоголосый закадровый
    Субтитры: русские (полные), английские (полные)
    Видео: AVC/H.264, 1920х1036, ~9 Mbps
    Аудио #1: AC3, 6 ch, 384 kbps - русский (дубляж)
    Аудио #2: AC3, 6 ch, 448 kbps - русский (MVO)
    Аудио #3: DTS, 6 ch, 768 kbps - английский

    x264 info: frame I: 1254 Avg QP: 16.77 size: 218804
    x264 info: frame P: 31011 Avg QP: 18.12 size: 83530
    x264 info: frame B: 90006 Avg QP: 19.21 size: 31870
    Unique ID : 6174021157485775281137928626323464384 (0x4A512BEB4D46FC15391A582188220C0)
    Complete name : D: TempNNMПроклятие кролика.2005.1080p.mkv
    Format : Matroska
    Format version : Version 4/Version 2
    File size : 6.29 GiB
    Duration : 1h 24mn
    Overall bit rate : 10.6 Mbps
    Movie name : The.Curse.of.the.Were-Rabbit.2005.1080p.BluRay
    Writing library : Lavf57.71.100
    Video
    ID : 1
    Format : AVC
    Format/Info : Advanced Video Codec
    Format profile : High@L4.1
    Format settings, CABAC : Yes
    Format settings, ReFrames : 4 frames
    Codec ID : V_MPEG4/ISO/AVC
    Duration : 1h 24mn
    Bit rate : 9 000 Kbps
    Width : 1 920 pixels
    Height : 1 036 pixels
    Display aspect ratio : 1.85: 1
    Frame rate mode : Constant
    Frame rate : 23.976 fps
    Color space : YUV
    Chroma subsampling : 4: 2: 0
    Bit depth : 8 bits
    Scan type : Progressive
    Bits/(Pixel*Frame) : 0.189
    Stream size : 5.22 GiB (83%)
    Title : The.Curse.of.the.Were-Rabbit.2005.1080p.BluRay.REMUX.AVC.DTS-HD.MA.5.1
    Writing library : x264 core 157 r2935 545de2f
    Encoding settings : cabac=1/ref=4/deblock=1: -3: -3/analyse=0x3: 0x113/me=umh/subme=9/psy=1/psy_rd=1.05: 0.10/mixed_ref=1/me_range=24/chroma_me=1/trellis=2/8x8dct=1/cqm=0/deadzone=21, 11/fast_pskip=0/chroma_qp_offset=-3/threads=5/lookahead_threads=1/sliced_threads=0/nr=0/decimate=0/interlaced=0/bluray_compat=0/constrained_intra=0/bframes=6/b_pyramid=2/b_adapt=2/b_bias=0/direct=1/weightb=1/open_gop=0/weightp=2/keyint=240/keyint_min=24/scenecut=40/intra_refresh=0/rc=2pass/mbtree=0/bitrate=9000/ratetol=1.0/qcomp=0.70/qpmin=3/qpmax=69/qpstep=4/cplxblur=20.0/qblur=0.5/ip_ratio=1.40/pb_ratio=1.30/aq=2: 1.00
    Language : English
    Default : Yes
    Forced : No
    Audio #1
    ID : 2
    Format : AC-3
    Format/Info : Audio Coding 3
    Mode extension : CM (complete main)
    Format settings, Endianness : Big
    Codec ID : A_AC3
    Duration : 1h 24mn
    Bit rate mode : Constant
    Bit rate : 384 Kbps
    Channel(s) : 6 channels
    Channel positions : Front: L C R, Side: L R, LFE
    Sampling rate : 48.0 KHz
    Bit depth : 16 bits
    Compression mode : Lossy
    Stream size : 233 MiB (4%)
    Title : Dub
    Language : Russian
    Default : Yes
    Forced : No
    Audio #2
    ID : 3
    Format : AC-3
    Format/Info : Audio Coding 3
    Mode extension : CM (complete main)
    Format settings, Endianness : Big
    Codec ID : A_AC3
    Duration : 1h 24mn
    Bit rate mode : Constant
    Bit rate : 448 Kbps
    Channel(s) : 6 channels
    Channel positions : Front: L C R, Side: L R, LFE
    Sampling rate : 48.0 KHz
    Bit depth : 16 bits
    Compression mode : Lossy
    Stream size : 272 MiB (4%)
    Title : MVO
    Language : Russian
    Default : No
    Forced : No
    Audio #3
    ID : 4
    Format : DTS
    Format/Info : Digital Theater Systems
    Mode : 16
    Format settings, Endianness : Big
    Codec ID : A_DTS
    Duration : 1h 24mn
    Bit rate mode : Constant
    Bit rate : 768 Kbps
    Channel(s) : 6 channels
    Channel positions : Front: L C R, Side: L R, LFE
    Sampling rate : 48.0 KHz
    Bit depth : 16 bits
    Compression mode : Lossy
    Stream size : 467 MiB (7%)
    Language : English
    Default : No
    Forced : No
    Text #1
    ID : 5
    Format : UTF-8
    Codec ID : S_TEXT/UTF8
    Codec ID/Info : UTF-8 Plain Text
    Language : Russian
    Default : Yes
    Forced : No
    Text #2
    ID : 6
    Format : UTF-8
    Codec ID : S_TEXT/UTF8
    Codec ID/Info : UTF-8 Plain Text
    Title : full
    Language : English
    Default : No
    Forced : No
    Menu
    00: 00: 00.000 : : Chapter 01
    00: 06: 47.073 : : Chapter 02
    00: 11: 35.653 : : Chapter 03
    00: 18: 05.459 : : Chapter 04
    00: 21: 39.715 : : Chapter 05
    00: 25: 48.630 : : Chapter 06
    00: 30: 31.079 : : Chapter 07
    00: 35: 26.874 : : Chapter 08
    00: 39: 55.476 : : Chapter 09
    00: 43: 28.022 : : Chapter 10
    00: 49: 46.483 : : Chapter 11
    00: 53: 05.557 : : Chapter 12
    00: 58: 08.443 : : Chapter 13
    01: 01: 18.424 : : Chapter 14
    01: 04: 14.308 : : Chapter 15
    01: 08: 40.074 : : Chapter 16
    01: 14: 51.278 : : Chapter 17
    01: 18: 58.567 : : Chapter 18

    Скриншоты для ознакомления



    Все одноименные релизы в Клубе
    Время раздачи: 24/7 (до появления первых 3-5 скачавших)


    Онлайн видео Уоллес и Громит: Проклятие Кролика-Оборотня



    Уоллес и Громит: Проклятие Кролика-Оборотня/Wallace & Gromit: the Curse of the Were-Rabbit (2005) BDRip [H.264/1080p]
    Рейтинг →
     (голосов: 1, оценка 3/5, голосовать можно 1 раз )

    Другие торренты по теме:

  • Даниел Уоллес | Крупная рыба (2015) [m4b|AAC] скачать через торрент бесплатно
  • Льюис Уоллес, Леонард Грен | Падение Царьграда. Последние дни Иерусалима (1993) [FB2] скачать через торрент бесплатно
  • Эдгар Уоллес и др. | Похищенная картина. Убийство у школьной доски. Обожатель мисс Уэст. Рубины приносят несчастье (1993) [PDF, DJVU] скачать через торрент бесплатно
  • Льюис Уоллес | Бен-Гур (2014) [MP3]
  • Льюис Уоллес, Леонард Грен | Падение Царьграда. Последние дни Иерусалима (2010) [MP3]
  • Эдгар Уоллес | Мертвые глаза Лондона [Сборник] (1992) [PDF, DJVU]
  • Эдгар Уоллес | Мастера острых сюжетов [Сборник] (1992) [PDF, DJVU]
  • Эдгар Уоллес | Мастера острых сюжетов [Сборник] (1992) [FB2]


    • Комментарии (0):

      Информация

      Информация

        Посетители, находящиеся в группе Гости, не могут оставлять комментарии в данной новости.

        ↓ Меню




        ↓ Опрос

        Вы добавили сайт в закладки?
        Да
        Нет


        Популярное