.
Авторизация | Регистрация

torrentbox.xyz

» » История игрушек / Toy Story (1995 - 2010) BDRip [H.264 / 1080p] [Трилогия] торрент скачать бесплатно


    История игрушек / Toy Story (1995 - 2010) BDRip [H.264 / 1080p] [Трилогия] торрент скачать бесплатно

    Дата: 23-09-2019, 05:00 | .torrent скачали: 0

    История игрушек / Toy Story (1995 - 2010) BDRip [H.264 / 1080p] [Трилогия]Производство: США/Walt Disney/Pixar
    Жанр: Фэнтези, Приключения, Детский
    Режиссер: Джон Лассетер, Эш Браннон, Ли Анкрич

    Описание

    Каждый ребенок верит, что когда он оставляет свои игрушки одни, они начинают заниматься своими делами. Этот мультипликационный фильм позволяет убедиться им в своей правоте.
    Основная идея фильма — каждая игрушка боится надоесть, стать забытой, замененной другой, так как весь смысл их существования — доставлять счастье своим хозяевам.
    Продолжительность: 01: 21: 04/01: 28: 07/01: 43: 03
    Качество видео: BDRip
    Перевод: Дублированный
    Субтитры: русские, английские
    Видео: AVC/H.264, 1920x1080, ~11.8 mbps
    Аудио 1: AC3, 6 ch, 640 kbps, Русский
    Аудио 2: AC3, 6 ch, 640 kbps, Английский
    История игрушек/Toy Story (1995) BDRip H.264/1080p
    Производство: США/Walt Disney/Pixar
    Жанр: Фэнтези, Приключения, Детский
    Режиссер: Джон Лассетер

    Описание

    Каждый ребенок верит, что когда он оставляет свои игрушки одни, они начинают заниматься своими делами. Этот мультипликационный фильм позволяет убедиться им в своей правоте.
    Основная идея фильма — каждая игрушка боится надоесть, стать забытой, замененной другой, так как весь смысл их существования — доставлять счастье своим хозяевам.

    Возраст: 6+ (зрителям, достигшим 6 лет)
    Рейтинг MPAA: G (нет возрастных ограничений)
    Продолжительность: 01: 21: 04
    Качество видео: BDRip
    Перевод: Дублированный
    Субтитры: русские
    Видео: AVC/H.264, 1920x1080, ~11.8 mbps
    Аудио 1: AC3, 6 ch, 640 kbps, Русский (DUB)
    Аудио 2: AC3, 6 ch, 640 kbps, Английский

    Общее
    Уникальный идентификатор : 228607296904892944594875836342807892153 (0xABFC29F2D30936AC8D1ACFE2FE7910B9)
    Полное имя : D: MULTToy_StoryToy.Story.1995.BDRip.1080p.mkv
    Формат : Matroska
    Версия формата : Version 4
    Размер файла : 7, 41 Гбайт
    Продолжительность : 1 ч. 21 м.
    Общий поток : 13, 1 Мбит/сек
    Название фильма : ReJIiZ by BenderBEST
    Дата кодирования : UTC 2019-09-22 02: 20: 53
    Программа кодирования : mkvmerge v8.2.0 (\'World of Adventure\') 64bit
    Библиотека кодирования : libebml v1.3.1 + libmatroska v1.4.2
    Видео
    Идентификатор : 1
    Формат : AVC
    Формат/Информация : Advanced Video Codec
    Профиль формата : High@L4.1
    Настройки формата : CABAC/3 Ref Frames
    Параметр CABAC формата : Да
    Параметр RefFrames формата : 3 кадра
    Идентификатор кодека : V_MPEG4/ISO/AVC
    Продолжительность : 1 ч. 21 м.
    Битрейт : 11, 8 Мбит/сек
    Ширина : 1920 пикселей
    Высота : 1080 пикселей
    Соотношение сторон : 16: 9
    Режим частоты кадров : Постоянный
    Частота кадров : 23, 976 кадра/сек
    Цветовое пространство : YUV
    Субдискретизация насыщенности : 4: 2: 0
    Битовая глубина : 8 бит
    Тип развёртки : Прогрессивная
    Бит/(Пиксели*Кадры) : 0.237
    Размер потока : 6, 68 Гбайт (90%)
    Библиотека кодирования : x264 core 80 r1376M 3feaec2
    Настройки программы : cabac=1/ref=4/deblock=1: 0: 0/analyse=0x3: 0x113/me=umh/subme=10/psy=1/psy_rd=1.0: 0.0/mixed_ref=1/me_range=64/chroma_me=1/trellis=2/8x8dct=1/cqm=0/deadzone=21, 11/fast_pskip=1/chroma_qp_offset=-2/threads=12/sliced_threads=0/nr=0/decimate=1/mbaff=0/constrained_intra=0/bframes=5/b_pyramid=1/b_adapt=2/b_bias=0/direct=2/wpredb=1/wpredp=2/keyint=250/keyint_min=25/scenecut=40/rc_lookahead=0/rc=2pass/mbtree=0/bitrate=11799/ratetol=2.0/qcomp=0.70/qpmin=10/qpmax=51/qpstep=4/cplxblur=20.0/qblur=0.5/vbv_maxrate=50000/vbv_bufsize=50000/ip_ratio=1.40/pb_ratio=1.30/aq=1: 0.80
    Язык : English
    Default : Да
    Forced : Нет
    Аудио #1
    Идентификатор : 2
    Формат : AC-3
    Формат/Информация : Audio Coding 3
    Коммерческое название : Dolby Digital
    Идентификатор кодека : A_AC3
    Продолжительность : 1 ч. 21 м.
    Вид битрейта : Постоянный
    Битрейт : 640 Кбит/сек
    Каналы : 6 каналов
    ChannelLayout : L R C LFE Ls Rs
    Частота : 48, 0 КГц
    Частота кадров : 31, 250 кадров/сек (1536 SPF)
    Битовая глубина : 16 бит
    Метод сжатия : С потерями
    Размер потока : 371 Мбайт (5%)
    Заголовок : RUS
    Язык : Russian
    ServiceKind/String : Complete Main
    Default : Да
    Forced : Нет
    Аудио #2
    Идентификатор : 3
    Формат : AC-3
    Формат/Информация : Audio Coding 3
    Коммерческое название : Dolby Digital
    Идентификатор кодека : A_AC3
    Продолжительность : 1 ч. 21 м.
    Вид битрейта : Постоянный
    Битрейт : 640 Кбит/сек
    Каналы : 6 каналов
    ChannelLayout : L R C LFE Ls Rs
    Частота : 48, 0 КГц
    Частота кадров : 31, 250 кадров/сек (1536 SPF)
    Битовая глубина : 16 бит
    Метод сжатия : С потерями
    Размер потока : 371 Мбайт (5%)
    Заголовок : ENG
    Язык : English
    ServiceKind/String : Complete Main
    Default : Нет
    Forced : Нет
    Текст
    Идентификатор : 4
    Формат : UTF-8
    Идентификатор кодека : S_TEXT/UTF8
    Идентификатор кодека/Информация : UTF-8 Plain Text
    Продолжительность : 1 ч. 16 м.
    Битрейт : 110 бит/сек
    ElementCount : 1012
    Размер потока : 61, 4 Кбайт (0%)
    Язык : Russian
    Default : Нет
    Forced : Нет
    Меню
    00: 00: 00.000 : en: 00: 00: 00.000
    00: 02: 02.247 : en: 00: 02: 02.247
    00: 04: 00.365 : en: 00: 04: 00.365
    00: 06: 34.019 : en: 00: 06: 34.019
    00: 09: 19.267 : en: 00: 09: 19.267
    00: 14: 16.981 : en: 00: 14: 16.981
    00: 20: 10.251 : en: 00: 20: 10.251
    00: 22: 17.211 : en: 00: 22: 17.211
    00: 24: 24.963 : en: 00: 24: 24.963
    00: 26: 01.226 : en: 00: 26: 01.226
    00: 29: 28.934 : en: 00: 29: 28.934
    00: 30: 09.349 : en: 00: 30: 09.349
    00: 35: 09.858 : en: 00: 35: 09.858
    00: 39: 25.405 : en: 00: 39: 25.405
    00: 42: 59.535 : en: 00: 42: 59.535
    00: 43: 43.329 : en: 00: 43: 43.329
    00: 46: 25.699 : en: 00: 46: 25.699
    00: 47: 20.171 : en: 00: 47: 20.171
    00: 49: 08.112 : en: 00: 49: 08.112
    00: 51: 08.524 : en: 00: 51: 08.524
    00: 53: 49.935 : en: 00: 53: 49.935
    00: 56: 23.714 : en: 00: 56: 23.714
    00: 57: 14.765 : en: 00: 57: 14.765
    01: 01: 41.072 : en: 01: 01: 41.072
    01: 02: 50.100 : en: 01: 02: 50.100
    01: 04: 49.093 : en: 01: 04: 49.093
    01: 07: 58.658 : en: 01: 07: 58.658
    01: 13: 10.302 : en: 01: 13: 10.302
    01: 15: 40.077 : en: 01: 15: 40.077
    01: 17: 08.374 : en: 01: 17: 08.374

    Скриншоты для ознакомления



    Все одноименные релизы в Клубе
    История игрушек 2/Toy Story 2 (1999) BDRip H.264/1080p
    Производство: США
    Жанр: Приключения, Комедия, Детский
    Режиссер: Джон Лассетер, Эш Браннон, Ли Анкрич

    Описание

    Ковбой Вуди и другие игрушки мальчика по имени Энди продолжают жить, радуясь каждому дню. Но неожиданно все меняется, когда Вуди похищает коварный коллекционер. Оказывается, что Вуди — очень ценная игрушка из коллекции, за которую японский музей игрушек готов заплатить огромную сумму. В доме коллекционера он находит своих родственников. В это время игрушки во главе с Баззом Лайтером отправляются спасать Вуди.
    Вуди узнает о своем знаменитом прошлом, Базз и другие игрушки проходят опасный и тернистый путь. Перед Вуди встает непростой вопрос — каково же его предназначение? Блистать в витрине музея или же вернуться к любимому хозяину?

    Возраст: 6+ (зрителям, достигшим 6 лет)
    Рейтинг MPAA: G (нет возрастных ограничений)
    Продолжительность: 01: 28: 07
    Качество видео: BDRip
    Перевод: Дублированный
    Субтитры: русские, английские
    Видео: AVC/H.264, 1920x1080, ~ 12.1 mbps
    Аудио: AC3, 6 ch, 640 kbps, Русский (DUB)
    Аудио: AC3, 6 ch, 640 kbps, Английский

    Общее
    Уникальный идентификатор : 238905374308323345341967133341863964698 (0xB3BB805D6CA943E1A5FDA42A3D10F01A)
    Полное имя : D: MULTToy_StoryToy.Story.2.1999.BDRip.1080p.mkv
    Формат : Matroska
    Версия формата : Version 4
    Размер файла : 8, 66 Гбайт
    Продолжительность : 1 ч. 32 м.
    Общий поток : 13, 4 Мбит/сек
    Название фильма : ReJIiZ by BenderBEST
    Дата кодирования : UTC 2019-09-22 02: 40: 00
    Программа кодирования : mkvmerge v8.2.0 (\'World of Adventure\') 64bit
    Библиотека кодирования : libebml v1.3.1 + libmatroska v1.4.2
    Видео
    Идентификатор : 1
    Формат : AVC
    Формат/Информация : Advanced Video Codec
    Профиль формата : High@L4.1
    Настройки формата : CABAC/3 Ref Frames
    Параметр CABAC формата : Да
    Параметр RefFrames формата : 3 кадра
    Идентификатор кодека : V_MPEG4/ISO/AVC
    Продолжительность : 1 ч. 32 м.
    Битрейт : 12, 1 Мбит/сек
    Ширина : 1920 пикселей
    Высота : 1080 пикселей
    Соотношение сторон : 16: 9
    Режим частоты кадров : Постоянный
    Частота кадров : 23, 976 кадра/сек
    Цветовое пространство : YUV
    Субдискретизация насыщенности : 4: 2: 0
    Битовая глубина : 8 бит
    Тип развёртки : Прогрессивная
    Бит/(Пиксели*Кадры) : 0.244
    Размер потока : 7, 83 Гбайт (90%)
    Библиотека кодирования : x264 core 80 r1376M 3feaec2
    Настройки программы : cabac=1/ref=4/deblock=1: 0: 0/analyse=0x3: 0x113/me=umh/subme=10/psy=1/psy_rd=1.0: 0.0/mixed_ref=1/me_range=64/chroma_me=1/trellis=2/8x8dct=1/cqm=0/deadzone=21, 11/fast_pskip=1/chroma_qp_offset=-2/threads=12/sliced_threads=0/nr=0/decimate=1/mbaff=0/constrained_intra=0/bframes=5/b_pyramid=1/b_adapt=2/b_bias=0/direct=2/wpredb=1/wpredp=2/keyint=250/keyint_min=25/scenecut=40/rc_lookahead=0/rc=2pass/mbtree=0/bitrate=12147/ratetol=2.0/qcomp=0.70/qpmin=10/qpmax=51/qpstep=4/cplxblur=20.0/qblur=0.5/vbv_maxrate=50000/vbv_bufsize=50000/ip_ratio=1.40/pb_ratio=1.30/aq=1: 0.80
    Язык : English
    Default : Да
    Forced : Нет
    Аудио #1
    Идентификатор : 2
    Формат : AC-3
    Формат/Информация : Audio Coding 3
    Коммерческое название : Dolby Digital
    Идентификатор кодека : A_AC3
    Продолжительность : 1 ч. 32 м.
    Вид битрейта : Постоянный
    Битрейт : 640 Кбит/сек
    Каналы : 6 каналов
    ChannelLayout : L R C LFE Ls Rs
    Частота : 48, 0 КГц
    Частота кадров : 31, 250 кадров/сек (1536 SPF)
    Битовая глубина : 16 бит
    Метод сжатия : С потерями
    Размер потока : 423 Мбайт (5%)
    Заголовок : RUS
    Язык : Russian
    ServiceKind/String : Complete Main
    Default : Да
    Forced : Нет
    Аудио #2
    Идентификатор : 3
    Формат : AC-3
    Формат/Информация : Audio Coding 3
    Коммерческое название : Dolby Digital
    Идентификатор кодека : A_AC3
    Продолжительность : 1 ч. 32 м.
    Вид битрейта : Постоянный
    Битрейт : 640 Кбит/сек
    Каналы : 6 каналов
    ChannelLayout : L R C LFE Ls Rs
    Частота : 48, 0 КГц
    Частота кадров : 31, 250 кадров/сек (1536 SPF)
    Битовая глубина : 16 бит
    Метод сжатия : С потерями
    Размер потока : 423 Мбайт (5%)
    Заголовок : ENG
    Язык : English
    ServiceKind/String : Complete Main
    Default : Нет
    Forced : Нет
    Текст
    Идентификатор : 4
    Формат : UTF-8
    Идентификатор кодека : S_TEXT/UTF8
    Идентификатор кодека/Информация : UTF-8 Plain Text
    Продолжительность : 1 ч. 24 м.
    Битрейт : 123 бит/сек
    ElementCount : 1097
    Размер потока : 76, 3 Кбайт (0%)
    Язык : Russian
    Default : Нет
    Forced : Нет
    Меню
    00: 00: 00.000 : : Opening Titles
    00: 01: 23.583 : : Buzz\'s Mission
    00: 04: 48.288 : : Woody\'s Lost Hat
    00: 07: 35.789 : : It\'s Buster!
    00: 10: 40.932 : : The Nightmare
    00: 11: 54.797 : : Wheezy
    00: 12: 47.100 : : Yard Sale
    00: 15: 29.929 : : Kidnapped!
    00: 18: 15.845 : : Who Stole Woody?
    00: 20: 17.591 : : The Roundup Gang
    00: 24: 14.036 : : Operation Rescue Woody
    00: 25: 54.386 : : Woody\'s Roundup
    00: 30: 32.122 : : Woody Loses His Arm
    00: 31: 48.448 : : Buzz\'s Speech
    00: 32: 51.469 : : Getting the Arm
    00: 36: 44.994 : : Crossing the Road
    00: 39: 09.138 : : The Cleaner
    00: 39: 53.057 : : Al\'s Toy Barn
    00: 41: 06.339 : : Woody\'s Restoration
    00: 42: 26.210 : : Buzz Switch
    00: 44: 41.345 : : The Barbie Aisle
    00: 46: 58.566 : : Jessie\'s Story (When She Loved Me)
    00: 53: 23.951 : : The Toys Find Al
    00: 56: 19.918 : : Into the Vents
    01: 01: 10.041 : : Sheriff Woody
    01: 02: 14.272 : : To the Rescue!
    01: 04: 23.902 : : Woody Stays
    01: 08: 00.409 : : Stinky Pete
    01: 09: 52.188 : : Zurg Battle
    01: 12: 27.468 : : To the Airport
    01: 14: 58.494 : : Woody vs. Prospector
    01: 17: 28.310 : : Saving Jessie
    01: 19: 46.281 : : Takeoff!
    01: 21: 35.807 : : Welcome Home
    01: 25: 48.977 : : End Credits

    Скриншоты для ознакомления



    Все одноименные релизы в Клубе
    История игрушек: Большой побег/Toy Story 3 (2010) BDRip H.264/1080p
    Производство: США
    Жанр: Приключения, Комедия, Детский
    Режиссер: Ли Анкрич

    Описание

    Энди почти 18 лет, ему остаётся 3 дня до отправки в колледж, в то время как его игрушки, в том числе Вуди и Базз Лайтер, гадают о своём будущем.
    Куда забросит их судьба? На чердак, на свалку или, может быть, в детский сад Солнышко?
    События развиваются в самом неожиданном направлении, и приключения полюбившихся героев продолжаются!

    Возраст: 6+ (зрителям, достигшим 6 лет)
    Рейтинг MPAA: G (нет возрастных ограничений)
    Продолжительность: 01: 43: 03
    Качество видео: BDRip
    Перевод: Дублированный
    Субтитры: русские, английские
    Видео: AVC/H.264, 1920x1080, ~ 11 mbps
    Аудио: AC3, 6 ch, 640 kbps, Русский (DUB)
    Аудио: AC3, 6 ch, 640 kbps, Английский

    Общее
    Уникальный идентификатор : 242947966313558687736811819531122862016 (0xB6C6138A0B21CEE29A342189BB2D67C0)
    Полное имя : D: MULTToy_StoryToy.Story.3.2010.BDRip.1080p.mkv
    Формат : Matroska
    Версия формата : Version 4
    Размер файла : 8, 84 Гбайт
    Продолжительность : 1 ч. 43 м.
    Общий поток : 12, 3 Мбит/сек
    Название фильма : ReJIiZ by BenderBEST
    Дата кодирования : UTC 2019-09-22 05: 17: 07
    Программа кодирования : mkvmerge v8.2.0 (\'World of Adventure\') 64bit
    Библиотека кодирования : libebml v1.3.1 + libmatroska v1.4.2
    Видео
    Идентификатор : 1
    Формат : AVC
    Формат/Информация : Advanced Video Codec
    Профиль формата : High@L4.1
    Настройки формата : CABAC/4 Ref Frames
    Параметр CABAC формата : Да
    Параметр RefFrames формата : 4 кадра
    Идентификатор кодека : V_MPEG4/ISO/AVC
    Продолжительность : 1 ч. 43 м.
    Битрейт : 11, 0 Мбит/сек
    Ширина : 1920 пикселей
    Высота : 1080 пикселей
    Соотношение сторон : 16: 9
    Режим частоты кадров : Постоянный
    Частота кадров : 23, 976 (24000/1001) кадра/сек
    Цветовое пространство : YUV
    Субдискретизация насыщенности : 4: 2: 0
    Битовая глубина : 8 бит
    Тип развёртки : Прогрессивная
    Бит/(Пиксели*Кадры) : 0.221
    Размер потока : 7, 92 Гбайт (90%)
    Библиотека кодирования : x264 core 104 r1713 c276662
    Настройки программы : cabac=1/ref=4/deblock=1: -3: -3/analyse=0x3: 0x113/me=umh/subme=9/psy=1/psy_rd=0.85: 0.00/mixed_ref=1/me_range=32/chroma_me=1/trellis=2/8x8dct=1/cqm=0/deadzone=21, 11/fast_pskip=0/chroma_qp_offset=-2/threads=6/sliced_threads=0/nr=0/decimate=0/interlaced=0/constrained_intra=0/bframes=6/b_pyramid=2/b_adapt=2/b_bias=0/direct=3/weightb=1/open_gop=0/weightp=2/keyint=250/keyint_min=23/scenecut=40/intra_refresh=0/rc_lookahead=40/rc=2pass/mbtree=0/bitrate=11000/ratetol=1.0/qcomp=0.70/qpmin=10/qpmax=51/qpstep=4/cplxblur=20.0/qblur=0.5/vbv_maxrate=50000/vbv_bufsize=50000/ip_ratio=1.40/pb_ratio=1.30/aq=1: 0.80/nal_hrd=none
    Язык : English
    Default : Да
    Forced : Нет
    Аудио #1
    Идентификатор : 2
    Формат : AC-3
    Формат/Информация : Audio Coding 3
    Коммерческое название : Dolby Digital
    Идентификатор кодека : A_AC3
    Продолжительность : 1 ч. 43 м.
    Вид битрейта : Постоянный
    Битрейт : 640 Кбит/сек
    Каналы : 6 каналов
    ChannelLayout : L R C LFE Ls Rs
    Частота : 48, 0 КГц
    Частота кадров : 31, 250 кадров/сек (1536 SPF)
    Битовая глубина : 16 бит
    Метод сжатия : С потерями
    Размер потока : 472 Мбайт (5%)
    Заголовок : RUS
    Язык : Russian
    ServiceKind/String : Complete Main
    Default : Да
    Forced : Нет
    Аудио #2
    Идентификатор : 3
    Формат : AC-3
    Формат/Информация : Audio Coding 3
    Коммерческое название : Dolby Digital
    Идентификатор кодека : A_AC3
    Продолжительность : 1 ч. 43 м.
    Вид битрейта : Постоянный
    Битрейт : 640 Кбит/сек
    Каналы : 6 каналов
    ChannelLayout : L R C LFE Ls Rs
    Частота : 48, 0 КГц
    Частота кадров : 31, 250 кадров/сек (1536 SPF)
    Битовая глубина : 16 бит
    Метод сжатия : С потерями
    Размер потока : 472 Мбайт (5%)
    Заголовок : ENG
    Язык : English
    ServiceKind/String : Complete Main
    Default : Нет
    Forced : Нет
    Текст #1
    Идентификатор : 4
    Формат : UTF-8
    Идентификатор кодека : S_TEXT/UTF8
    Идентификатор кодека/Информация : UTF-8 Plain Text
    Продолжительность : 8 м. 46 с.
    Битрейт : 14 бит/сек
    ElementCount : 21
    Размер потока : 946 байт (0%)
    Заголовок : Forced
    Язык : Russian
    Default : Да
    Forced : Нет
    Текст #2
    Идентификатор : 5
    Формат : UTF-8
    Идентификатор кодека : S_TEXT/UTF8
    Идентификатор кодека/Информация : UTF-8 Plain Text
    Продолжительность : 1 ч. 36 м.
    Битрейт : 94 бит/сек
    ElementCount : 1269
    Размер потока : 66, 5 Кбайт (0%)
    Язык : Russian
    Default : Нет
    Forced : Нет
    Меню
    00: 00: 00.000 : en: 1. Western Adventure
    00: 04: 53.543 : en: 2. Playtime
    00: 06: 20.254 : en: 3. Grown Up
    00: 11: 37.404 : en: 4. College Packing
    00: 15: 17.166 : en: 5. Thrown Away
    00: 18: 34.196 : en: 6. Going to Daycare
    00: 19: 23.870 : en: 7. Sunnyside Welcome
    00: 26: 17.116 : en: 8. What About Andy?
    00: 28: 59.404 : en: 9. Woody Leaves
    00: 31: 47.822 : en: 10. Rough Play
    00: 33: 22.333 : en: 11. Bonnie
    00: 35: 50.064 : en: 12. We\'re Trapped!
    00: 37: 30.122 : en: 13. Gambling Den
    00: 40: 11.325 : en: 14. Where\'s Home?
    00: 41: 12.636 : en: 15. Lotso\'s Offer
    00: 43: 37.489 : en: 16. I See Andy
    00: 44: 49.269 : en: 17. Locked Up
    00: 48: 19.521 : en: 18. Lotso\'s Story
    00: 52: 28.061 : en: 19. Daybreak
    00: 53: 51.895 : en: 20. Woody Returns
    00: 57: 11.969 : en: 21. Reunited
    00: 58: 20.705 : en: 22. Prison Break
    01: 01: 09.999 : en: 23. Ken\'s Closet
    01: 02: 06.639 : en: 24. Prison Riot
    01: 02: 57.023 : en: 25. Mr. Tortilla Head
    01: 06: 35.032 : en: 26. Spanish Buzz
    01: 11: 21.735 : en: 27. Caught
    01: 15: 57.260 : en: 28. Garbage Truck
    01: 17: 35.817 : en: 29. The Dump
    01: 19: 43.194 : en: 30. End of the Line
    01: 23: 01.934 : en: 31. Safe and Sound
    01: 24: 59.594 : en: 32. Back Home
    01: 28: 15.581 : en: 33. Goodbye, Andy
    01: 34: 18.277 : en: 34. End Credits

    Скриншоты для ознакомления



    Все одноименные релизы в Клубе
    Производство: США/Walt Disney/Pixar
    Жанр: Фэнтези, Приключения, Детский
    Режиссер: Джон Лассетер, Эш Браннон, Ли Анкрич

    Описание

    Каждый ребенок верит, что когда он оставляет свои игрушки одни, они начинают заниматься своими делами. Этот мультипликационный фильм позволяет убедиться им в своей правоте.
    Основная идея фильма — каждая игрушка боится надоесть, стать забытой, замененной другой, так как весь смысл их существования — доставлять счастье своим хозяевам.
    Продолжительность: 01: 21: 04/01: 28: 07/01: 43: 03
    Качество видео: BDRip
    Перевод: Дублированный
    Субтитры: русские, английские
    Видео: AVC/H.264, 1920x1080, ~11.8 mbps
    Аудио 1: AC3, 6 ch, 640 kbps, Русский
    Аудио 2: AC3, 6 ch, 640 kbps, Английский

    Скриншоты для ознакомления



    Все одноименные релизы в Клубе
    Время раздачи: c 5 до 19 мск (до появления первых 3-5 скачавших)


    Онлайн видео История игрушек



    История игрушек/Toy Story (1995 - 2010) BDRip [H.264/1080p] [Трилогия]
    Рейтинг →
     (голосов: 1, оценка 4/5, голосовать можно 1 раз )

    Другие торренты по теме:

  • История игрушек: Время забыть / Toy Story That Time Forgot (2014) HDTVRip [H.264 / 720p-LQ] [EN] скачать через торрент бесплатно
  • История игрушек: Время забыть / Toy Story That Time Forgot (2014) HDTVRip [H.264 / 720p-LQ]
  • История игрушек: Время забыть / Toy Story That Time Forgot (2014) HDTVRip
  • История игрушек. Оловянные солдатики (2013) HDTVRip
  • История игрушек: Самозванец / Toy Story Toons: Small Fry (2011) BDRip [H.264 / 1080p]
  • История игрушек: Самозванец / Toy Story Toons: Small Fry (2011) BDRip [H.264 / 720p]
  • История игрушек: Самозванец / Toy Story Toons: Small Fry (2011) BDRemux [H.264 / 1080p]
  • История игрушек: Веселозавр Рекс / Toy Story Toons: Partysaurus Rex (2012) WEB-DL [H.264 / 1080p]


    • Комментарии (0):

      Информация

      Информация

        Посетители, находящиеся в группе Гости, не могут оставлять комментарии в данной новости.

        ↓ Меню




        ↓ Опрос

        Вы добавили сайт в закладки?
        Да
        Нет


        Популярное