.
Авторизация | Регистрация

torrentbox.xyz

» » Жила-была царевна (2015-2019) WEB-DLRip [H.264 / 720p-LQ] (сезон 1, серии 1-18 из 26) [Обновляемая] торрент скачать бесплатно


    Жила-была царевна (2015-2019) WEB-DLRip [H.264 / 720p-LQ] (сезон 1, серии 1-18 из 26) [Обновляемая] торрент скачать бесплатно

    Дата: 24-09-2019, 05:00 | .torrent скачали: 0

    Жила-была царевна (2015-2019) WEB-DLRip [H.264 / 720p-LQ] (сезон 1, серии 1-18 из 26) [Обновляемая]Жанр: Мультсериал, рисованный, обучающий, познавательный
    Производство: Россия/X-Media Digital
    Режиссер: Наталья Титаренко
    Персонажи: Царевна, Царица, Царь, Собака

    Актеры
    Алена Созинова, Василий Шемякинский, Лиза Запорожец, Артём Колпаков

    Описание

    Добро пожаловать в королевство юной рыжеволосой героини. Она хоть и молодая царевна, а желания у неё совершенно обыкновенные — побольше сладостей и поменьше нравоучений. В конце концов она — всего лишь ребёнок, который только начинает познавать окружающий мир.

    Возраст: 0+ (для любой зрительской аудитории)
    Релиз от: Natasha77
    Продолжительность: ~00: 06: 30 серия
    Качество видео: WEB-DLRip
    Перевод: Не требуется (Русский)
    Субтитры: Отсутствуют
    Видео: AVC/H.264, 1280x720, ~2569 kbps
    Аудио: Русский: AAC, 2 ch, 256 kbps
    Общее
    Уникальный идентификатор : 201054968764416120392401896432530674239 (0x9741C74A89F3927AC7CD77DDBD9CD23F)
    Полное имя : E: 15_Попрыгунья.mkv
    Формат : Matroska
    Версия формата : Version 4
    Размер файла : 147 Мбайт
    Продолжительность : 7 м. 15 с.
    Общий поток : 2833 Кбит/сек
    Дата кодирования : UTC 2019-09-23 17: 31: 48
    Программа кодирования : mkvmerge v37.0.0 (\'Leave It\') 32-bit
    Библиотека кодирования : libebml v1.3.9 + libmatroska v1.5.2
    Видео
    Идентификатор : 1
    Формат : AVC
    Формат/Информация : Advanced Video Codec
    Профиль формата : High@L4
    Настройки формата : CABAC/4 Ref Frames
    Параметр CABAC формата : Да
    Параметр RefFrames формата : 4 кадра
    Идентификатор кодека : V_MPEG4/ISO/AVC
    Продолжительность : 7 м. 15 с.
    Битрейт : 2569 Кбит/сек
    Ширина : 1280 пикселей
    Высота : 720 пикселей
    Соотношение сторон : 16: 9
    Режим частоты кадров : Постоянный
    Частота кадров : 60, 000 кадров/сек
    Цветовое пространство : YUV
    Субдискретизация насыщенности : 4: 2: 0
    Битовая глубина : 8 бит
    Тип развёртки : Прогрессивная
    Бит/(Пиксели*Кадры) : 0.046
    Размер потока : 133 Мбайт (91%)
    Библиотека кодирования : x264 core 148
    Default : Да
    Forced : Нет
    Аудио
    Идентификатор : 2
    Формат : AAC LC
    Формат/Информация : Advanced Audio Codec Low Complexity
    Идентификатор кодека : A_AAC-2
    Продолжительность : 7 м. 15 с.
    Битрейт : 256 Кбит/сек
    Каналы : 2 канала
    ChannelLayout : L R
    Частота : 48, 0 КГц
    Частота кадров : 46, 875 кадров/сек (1024 SPF)
    Метод сжатия : С потерями
    Задержка видео : -43 мс.
    Размер потока : 13, 3 Мбайт (9%)
    Язык : English
    Default : Да
    Forced : Нет


    Онлайн видео Жила-была царевна (2015-2019) WEB-DLRip [H.264



    Жила-была царевна (2015-2019) WEB-DLRip [H.264/720p-LQ] (сезон 1, серии 1-18 из 26) [Обновляемая]
    Рейтинг →
     (голосов: 1, оценка 5/5, голосовать можно 1 раз )

    Другие торренты по теме:

  • Жила-была царевна (2013) WEB-DL [H.264 / 1080p-LQ] (серии 1-5 из 5 + Бонусы)
  • Жила-была царевна (2013-2016) WEB-DLRip (серии 1-8 из 8 + 10 бонусов)
  • Жила-была царевна (2013-2016) WEB-DL [H.264 / 720p-LQ] (серии 1-8 из 8 + 10 бонусов)
  • Жила-была царевна (2013-2016) WEB-DL [H.264 / 1080p-LQ] (серии 1-8 из 8 + 10 бонусов)


    • Комментарии (0):

      Информация

      Информация

        Посетители, находящиеся в группе Гости, не могут оставлять комментарии в данной новости.

        ↓ Меню




        ↓ Опрос

        Вы добавили сайт в закладки?
        Да
        Нет


        Популярное

        Футурама / Futurama (1999-2013) DVDRip (7 Сезонов, 140 серии) скачать через торрент бесплатно

        (скачиваний: 31)
        Роберт Кийосаки | Богатый папа, бедный папа для подростков (2014) [PDF, FB2]

        (скачиваний: 29)
        Анна Рольская | Основы каллиграфии и леттеринга (2017) [PDF]

        (скачиваний: 18)
        Питер Браун | Дикий робот. Спасение дикого робота [2 книги] (2019) [PDF, FB2]

        (скачиваний: 17)
        Оранжевая корова (2018-2019) WEB-DLRip [H.264 / 720p-LQ] (сезон 1, серии 1-3 из 20)

        (скачиваний: 15)
        Александр Никонов | Физика на пальцах. Для детей и родителей, которые хотят объяснять детям (2016) [PDF]

        (скачиваний: 14)
        Пластилинки. Циферки (2018-2019) WEB-DLRip [H.264 / 720p-LQ] (сезон 1, серии 1-6 из 10)

        (скачиваний: 13)
        Эдвард Хэлловэлл, Джон Рэйти | Почему я отвлекаюсь. Как распознать синдром дефицита внимания у взрослых и детей и что с ним делать (2016) [FB2]

        (скачиваний: 13)
        Джоан Кэтлин Роулинг | Гарри Поттер. Полное собрание [7 книг] (2005-2007) [PDF, DJVU, FB2, EPUB]

        (скачиваний: 13)
        Гого: приключение с английским / GOGOs Adventures with English (1995) WEBRip (Сезон 1, серий 39 из 39) [EN] скачать через торрент бесплатно

        (скачиваний: 12)