.
Авторизация | Регистрация

torrentbox.xyz

» » UglyDolls. Куклы с характером / UglyDolls (2019) BDRip [H.264 / 1080p] торрент скачать бесплатно


    UglyDolls. Куклы с характером / UglyDolls (2019) BDRip [H.264 / 1080p] торрент скачать бесплатно

    Дата: 26-09-2019, 05:00 | .torrent скачали: 0

    UglyDolls. Куклы с характером / UglyDolls (2019) BDRip [H.264 / 1080p]Производство: Китай, Канада, США/STX Entertainment, Alibaba Pictures
    Жанр: Фэнтези, Приключения, Комедия
    Режиссер: Келли Эсбёри

    Описание

    Добро пожаловать в Агливилль! В этом удивительном месте всё необычное считается необыкновенным, а красота — не всегда то, что подвластно взору. Здесь живет милашка Мокси со своими странными друзьями. Однажды они вместе отправляются в невероятное путешествие, во время которого им предстоит проявить свой характер и понять, что самое главное — в любой ситуации оставаться собой…

    Возраст: 6+ (зрителям, достигшим 6 лет)
    Рейтинг MPAA: G (нет возрастных ограничений)
    Дата мировой премьеры: 27 апреля 2019
    Дата российской премьеры: 22 августа 2019, Вольга
    Релиз от: selezen
    Продолжительность: 01: 27: 50
    Качество видео: BDRip
    Перевод: Дублированный
    Субтитры: Русские (Full), Английские
    Видео: AVC/H.264, 1920x1036, ~13, 4 Mbps
    Аудио 1: AC3, 6 ch, 384 Kbps - Русский (DUB, iTunes)
    Аудио 2: AC3, 6 ch, 384 Kbps - Украинский (DUB, iTunes)
    Аудио 3: E-AC3, 8 ch, 1536 Kbps - Английский

    General
    Unique ID : 250363537888433786093945201438956201299 (0xBC5A437220C9CFE7FE49DEDD11C02553)
    Complete name : D: Video111UglyDolls.2019.BDRip.1080p.seleZen.mkv
    Format : Matroska
    Format version : Version 4
    File size : 9.63 GiB
    Duration : 1 h 27 min
    Overall bit rate : 15.7 Mb/s
    Movie name : UglyDolls 2019 From селезень
    Encoded date : UTC 2019-09-25 10: 54: 05
    Writing application : mkvmerge v22.0.0 (\'At The End Of The World\') 64-bit
    Writing library : libebml v1.3.5 + libmatroska v1.4.8
    Video
    ID : 1
    Format : AVC
    Format/Info : Advanced Video Codec
    Format profile : High@L4.1
    Format settings : CABAC/4 Ref Frames
    Format settings, CABAC : Yes
    Format settings, Reference : 4 frames
    Codec ID : V_MPEG4/ISO/AVC
    Duration : 1 h 27 min
    Bit rate : 13.4 Mb/s
    Width : 1 920 pixels
    Height : 1 036 pixels
    Display aspect ratio : 1.85: 1
    Frame rate mode : Constant
    Frame rate : 23.976 (24000/1001) FPS
    Color space : YUV
    Chroma subsampling : 4: 2: 0
    Bit depth : 8 bits
    Scan type : Progressive
    Bits/(Pixel*Frame) : 0.281
    Stream size : 8.22 GiB (85%)
    Title : DON
    Writing library : x264 core 157 r2970+47 cae74a0 t_mod_New 0-bit@all X86_64
    Encoding settings : cabac=1/ref=4/deblock=1: -3: -3/analyse=0x3: 0x133/me=umh/subme=10/psy=1/fade_compensate=0.00/psy_rd=0.85: 0.00/mixed_ref=1/me_range=32/chroma_me=1/trellis=2/8x8dct=1/cqm=0/deadzone=21, 11/fast_pskip=0/chroma_qp_offset=-2/threads=12/lookahead_threads=2/sliced_threads=0/nr=0/decimate=0/interlaced=0/bluray_compat=0/constrained_intra=0/fgo=0/bframes=8/b_pyramid=2/b_adapt=2/b_bias=0/direct=3/weightb=1/open_gop=0/weightp=2/keyint=250/keyint_min=23/scenecut=40/intra_refresh=0/rc=crf/mbtree=0/crf=16.6000/qcomp=0.60/qpmin=0: 0: 0/qpmax=69: 69: 69/qpstep=4/ip_ratio=1.40/pb_ratio=1.30/aq=3: 0.95/aq-sensitivity=10.00/aq-factor=1.00: 1.00: 1.00/aq2=0/aq3=0/zones=2136, 2175, crf=15.2/23548, 23866, crf=14.8/31915, 33167, crf=15.4/57634, 57782, crf=15.1/63322, 64037, crf=14.7/72299, 73116, crf=14.6/80247, 82284, crf=14.7/86086, 86170, crf=14.6/87279, 87320, crf=14.6/101145, 101381, crf=14.6/117922, 118153, crf=14.7
    Language : English
    Default : Yes
    Forced : No
    Audio #1
    ID : 2
    Format : AC-3
    Format/Info : Audio Coding 3
    Commercial name : Dolby Digital
    Codec ID : A_AC3
    Duration : 1 h 27 min
    Bit rate mode : Constant
    Bit rate : 384 kb/s
    Channel(s) : 6 channels
    Channel layout : L R C LFE Ls Rs
    Sampling rate : 48.0 kHz
    Frame rate : 31.250 FPS (1536 SPF)
    Bit depth : 16 bits
    Compression mode : Lossy
    Stream size : 241 MiB (2%)
    Title : iTunes
    Language : Russian
    Service kind : Complete Main
    Default : Yes
    Forced : Yes
    Audio #2
    ID : 3
    Format : AC-3
    Format/Info : Audio Coding 3
    Commercial name : Dolby Digital
    Codec ID : A_AC3
    Duration : 1 h 27 min
    Bit rate mode : Constant
    Bit rate : 384 kb/s
    Channel(s) : 6 channels
    Channel layout : L R C LFE Ls Rs
    Sampling rate : 48.0 kHz
    Frame rate : 31.250 FPS (1536 SPF)
    Bit depth : 16 bits
    Compression mode : Lossy
    Stream size : 241 MiB (2%)
    Title : iTunes
    Language : Ukrainian
    Service kind : Complete Main
    Default : No
    Forced : No
    Audio #3
    ID : 4
    Format : E-AC-3
    Format/Info : Enhanced AC-3
    Commercial name : Dolby Digital Plus
    Format profile : Blu-ray Disc
    Codec ID : A_EAC3
    Duration : 1 h 27 min
    Bit rate mode : Constant
    Bit rate : 1 536 kb/s
    Channel(s) : 6 channels
    Channel(s)_Original : 8 channels
    ChannelLayout_Original : L R C LFE Ls Rs Lrs Rrs
    Sampling rate : 48.0 kHz
    Frame rate : 31.250 FPS (1536 SPF)
    Compression mode : Lossy
    Stream size : 965 MiB (10%)
    Title : Original
    Language : English
    Service kind : Complete Main
    Default : No
    Forced : No
    Text #1
    ID : 5
    Format : UTF-8
    Codec ID : S_TEXT/UTF8
    Codec ID/Info : UTF-8 Plain Text
    Duration : 1 h 16 min
    Bit rate : 104 b/s
    Count of elements : 1248
    Stream size : 58.3 KiB (0%)
    Title : Full
    Language : Russian
    Default : No
    Forced : No
    Text #2
    ID : 6
    Format : UTF-8
    Codec ID : S_TEXT/UTF8
    Codec ID/Info : UTF-8 Plain Text
    Duration : 1 h 24 min
    Bit rate : 80 b/s
    Count of elements : 1414
    Stream size : 49.4 KiB (0%)
    Title : Full
    Language : English
    Default : No
    Forced : No
    Text #3
    ID : 7
    Format : UTF-8
    Codec ID : S_TEXT/UTF8
    Codec ID/Info : UTF-8 Plain Text
    Duration : 1 h 26 min
    Bit rate : 85 b/s
    Count of elements : 1535
    Stream size : 54.0 KiB (0%)
    Title : SDH
    Language : English
    Default : No
    Forced : No
    Menu
    00: 00: 00.000 : : Chapter 1
    00: 05: 31.331 : : Chapter 2
    00: 09: 12.260 : : Chapter 3
    00: 14: 14.145 : : Chapter 4
    00: 18: 58.304 : : Chapter 5
    00: 21: 17.234 : : Chapter 6
    00: 25: 28.152 : : Chapter 7
    00: 29: 24.680 : : Chapter 8
    00: 32: 01.128 : : Chapter 9
    00: 34: 52.465 : : Chapter 10
    00: 40: 21.919 : : Chapter 11
    00: 44: 45.099 : : Chapter 12
    00: 51: 15.739 : : Chapter 13
    00: 55: 46.969 : : Chapter 14
    00: 59: 33.904 : : Chapter 15
    01: 02: 04.554 : : Chapter 16
    01: 07: 05.063 : : Chapter 17
    01: 12: 36.852 : : Chapter 18
    01: 16: 31.128 : : Chapter 19
    01: 19: 44.863 : : Chapter 20

    Скриншоты для ознакомления



    Все одноименные релизы в Клубе
    Время раздачи: 24/7 (до появления первых 3-5 скачавших)


    Онлайн видео UglyDolls. Куклы с характером



    UglyDolls. Куклы с характером/UglyDolls (2019) BDRip [H.264/1080p]
    Рейтинг →
     (голосов: 1, оценка 4/5, голосовать можно 1 раз )

    Другие торренты по теме:

  • UglyDolls. Куклы с характером / UglyDolls (2019) BDRemux [H.264 / 1080p]


    • Комментарии (0):

      Информация

      Информация

        Посетители, находящиеся в группе Гости, не могут оставлять комментарии в данной новости.

        ↓ Меню




        ↓ Опрос

        Вы добавили сайт в закладки?
        Да
        Нет


        Популярное

        Футурама / Futurama (1999-2013) DVDRip (7 Сезонов, 140 серии) скачать через торрент бесплатно

        (скачиваний: 31)
        Роберт Кийосаки | Богатый папа, бедный папа для подростков (2014) [PDF, FB2]

        (скачиваний: 29)
        Анна Рольская | Основы каллиграфии и леттеринга (2017) [PDF]

        (скачиваний: 18)
        Питер Браун | Дикий робот. Спасение дикого робота [2 книги] (2019) [PDF, FB2]

        (скачиваний: 17)
        Оранжевая корова (2018-2019) WEB-DLRip [H.264 / 720p-LQ] (сезон 1, серии 1-3 из 20)

        (скачиваний: 15)
        Александр Никонов | Физика на пальцах. Для детей и родителей, которые хотят объяснять детям (2016) [PDF]

        (скачиваний: 14)
        Пластилинки. Циферки (2018-2019) WEB-DLRip [H.264 / 720p-LQ] (сезон 1, серии 1-6 из 10)

        (скачиваний: 13)
        Эдвард Хэлловэлл, Джон Рэйти | Почему я отвлекаюсь. Как распознать синдром дефицита внимания у взрослых и детей и что с ним делать (2016) [FB2]

        (скачиваний: 13)
        Джоан Кэтлин Роулинг | Гарри Поттер. Полное собрание [7 книг] (2005-2007) [PDF, DJVU, FB2, EPUB]

        (скачиваний: 13)
        Гого: приключение с английским / GOGOs Adventures with English (1995) WEBRip (Сезон 1, серий 39 из 39) [EN] скачать через торрент бесплатно

        (скачиваний: 12)