.
Авторизация | Регистрация

torrentbox.xyz

» » UglyDolls. Куклы с характером / UglyDolls (2019) BDRemux [H.264 / 1080p] торрент скачать бесплатно


    UglyDolls. Куклы с характером / UglyDolls (2019) BDRemux [H.264 / 1080p] торрент скачать бесплатно

    Дата: 26-09-2019, 05:00 | .torrent скачали: 0

    UglyDolls. Куклы с характером / UglyDolls (2019) BDRemux [H.264 / 1080p]Производство: Китай, Канада, США/STX Entertainment, Alibaba Pictures
    Жанр: Фэнтези, Комедия, Приключения
    Режиссер: Келли Эсбёри

    Описание

    Добро пожаловать в Агливилль! В этом удивительном месте всё необычное считается необыкновенным, а красота — не всегда то, что подвластно взору. Здесь живет милашка Мокси со своими странными друзьями. Однажды они вместе отправляются в невероятное путешествие, во время которого им предстоит проявить свой характер и понять, что самое главное — в любой ситуации оставаться собой…

    Возраст: 6+ (зрителям, достигшим 6 лет)
    Рейтинг MPAA: PG (рекомендуется присутствие родителей)
    Дата мировой премьеры: 27 апреля 2019
    Дата российской премьеры: 22 августа 2019, Вольга
    Релиз от: NNMClub
    Продолжительность: 01: 27: 50
    Качество видео: BDRemux
    Перевод: Дублированный
    Субтитры: Русские (Full), Английские
    Видео: AVC/H.264, 1920x1080, ~27, 6 Mbps
    Аудио 1: AC3, 6 ch, 384 Kbps - Русский (DUB, iTunes)
    Аудио 2: AC3, 6 ch, 384 Kbps - Украинский (DUB, iTunes)
    Аудио 3: DTS-HD MA, 8 ch, 3947 Kbps - Английский

    Общее
    Уникальный идентификатор : 262548129052893058739256564095034296988 (0xC584EE2BFADF712A37E2BB3C058F8A9C)
    Полное имя : D: UglyDolls.2019.1080p.BDRemux.NNMClub.mkv
    Формат : Matroska
    Версия формата : Version 4
    Размер файла : 19, 8 Гбайт
    Продолжительность : 1 ч. 27 м.
    Режим общего битрейта : Переменный
    Общий поток : 32, 3 Мбит/сек
    Название фильма : UglyDolls 2019 From DOMKPAT
    Дата кодирования : UTC 2019-09-25 14: 10: 24
    Программа кодирования : mkvmerge v29.0.0 (\'Like It Or Not\') 64-bit
    Библиотека кодирования : libebml v1.3.6 + libmatroska v1.4.9
    Видео
    Идентификатор : 1
    Формат : AVC
    Формат/Информация : Advanced Video Codec
    Профиль формата : High@L4.1
    Настройки формата : CABAC/4 Ref Frames
    Параметр CABAC формата : Да
    Параметр RefFrames формата : 4 кадра
    Параметр GOP формата : M=3, N=12
    Идентификатор кодека : V_MPEG4/ISO/AVC
    Продолжительность : 1 ч. 27 м.
    Вид битрейта : Переменный
    Битрейт : 27, 6 Мбит/сек
    Максимальный битрейт : 38, 3 Мбит/сек
    Ширина : 1920 пикселей
    Высота : 1080 пикселей
    Соотношение сторон : 16: 9
    Режим частоты кадров : Постоянный
    Частота кадров : 23, 976 (24000/1001) кадра/сек
    Цветовое пространство : YUV
    Субдискретизация насыщенности : 4: 2: 0
    Битовая глубина : 8 бит
    Тип развёртки : Прогрессивная
    Бит/(Пиксели*Кадры) : 0.555
    Размер потока : 16, 9 Гбайт (85%)
    Язык : English
    Default : Да
    Forced : Нет
    Аудио #1
    Идентификатор : 2
    Формат : AC-3
    Формат/Информация : Audio Coding 3
    Коммерческое название : Dolby Digital
    Идентификатор кодека : A_AC3
    Продолжительность : 1 ч. 27 м.
    Вид битрейта : Постоянный
    Битрейт : 384 Кбит/сек
    Каналы : 6 каналов
    Channel layout : L R C LFE Ls Rs
    Частота : 48, 0 КГц
    Частота кадров : 31, 250 кадров/сек (1536 SPF)
    Битовая глубина : 16 бит
    Метод сжатия : С потерями
    Размер потока : 241 Мбайт (1%)
    Заголовок : iTunes
    Язык : Russian
    ServiceKind/String : Complete Main
    Default : Нет
    Forced : Да
    Аудио #2
    Идентификатор : 3
    Формат : AC-3
    Формат/Информация : Audio Coding 3
    Коммерческое название : Dolby Digital
    Идентификатор кодека : A_AC3
    Продолжительность : 1 ч. 27 м.
    Вид битрейта : Постоянный
    Битрейт : 384 Кбит/сек
    Каналы : 6 каналов
    Channel layout : L R C LFE Ls Rs
    Частота : 48, 0 КГц
    Частота кадров : 31, 250 кадров/сек (1536 SPF)
    Битовая глубина : 16 бит
    Метод сжатия : С потерями
    Размер потока : 241 Мбайт (1%)
    Заголовок : iTunes
    Язык : Ukrainian
    ServiceKind/String : Complete Main
    Default : Нет
    Forced : Нет
    Аудио #3
    Идентификатор : 4
    Формат : DTS XLL
    Формат/Информация : Digital Theater Systems
    Коммерческое название : DTS-HD Master Audio
    Идентификатор кодека : A_DTS
    Продолжительность : 1 ч. 27 м.
    Вид битрейта : Переменный
    Битрейт : 3947 Кбит/сек
    Каналы : 8 каналов
    Channel layout : C L R LFE Lb Rb Lss Rss
    Частота : 48, 0 КГц
    Частота кадров : 93, 750 кадра/сек (512 SPF)
    Битовая глубина : 24 бит
    Метод сжатия : Без потерь
    Размер потока : 2, 42 Гбайт (12%)
    Заголовок : DTS-HD.MA7.1
    Язык : English
    Default : Да
    Forced : Нет
    Текст #1
    Идентификатор : 5
    Формат : UTF-8
    Идентификатор кодека : S_TEXT/UTF8
    Идентификатор кодека/Информация : UTF-8 Plain Text
    Продолжительность : 1 ч. 16 м.
    Битрейт : 104 бит/сек
    ElementCount : 1248
    Размер потока : 58, 3 Кбайт (0%)
    Заголовок : Full
    Язык : Russian
    Default : Нет
    Forced : Нет
    Текст #2
    Идентификатор : 6
    Формат : UTF-8
    Идентификатор кодека : S_TEXT/UTF8
    Идентификатор кодека/Информация : UTF-8 Plain Text
    Продолжительность : 1 ч. 24 м.
    Битрейт : 80 бит/сек
    ElementCount : 1414
    Размер потока : 49, 4 Кбайт (0%)
    Заголовок : Full
    Язык : English
    Default : Нет
    Forced : Нет
    Текст #3
    Идентификатор : 7
    Формат : UTF-8
    Идентификатор кодека : S_TEXT/UTF8
    Идентификатор кодека/Информация : UTF-8 Plain Text
    Продолжительность : 1 ч. 26 м.
    Битрейт : 85 бит/сек
    ElementCount : 1535
    Размер потока : 54, 0 Кбайт (0%)
    Заголовок : SDH
    Язык : English
    Default : Нет
    Forced : Нет
    Меню
    00: 00: 00.000 : : Chapter 1
    00: 05: 31.331 : : Chapter 2
    00: 09: 12.260 : : Chapter 3
    00: 14: 14.145 : : Chapter 4
    00: 18: 58.304 : : Chapter 5
    00: 21: 17.234 : : Chapter 6
    00: 25: 28.152 : : Chapter 7
    00: 29: 24.680 : : Chapter 8
    00: 32: 01.128 : : Chapter 9
    00: 34: 52.465 : : Chapter 10
    00: 40: 21.919 : : Chapter 11
    00: 44: 45.099 : : Chapter 12
    00: 51: 15.739 : : Chapter 13
    00: 55: 46.969 : : Chapter 14
    00: 59: 33.904 : : Chapter 15
    01: 02: 04.554 : : Chapter 16
    01: 07: 05.063 : : Chapter 17
    01: 12: 36.852 : : Chapter 18
    01: 16: 31.128 : : Chapter 19
    01: 19: 44.863 : : Chapter 20

    Скриншоты для ознакомления



    Все одноименные релизы в Клубе
    Время раздачи: 24/7 (до появления первых 3-5 скачавших)


    Онлайн видео UglyDolls. Куклы с характером



    UglyDolls. Куклы с характером/UglyDolls (2019) BDRemux [H.264/1080p]
    Рейтинг →
     (голосов: 1, оценка 4/5, голосовать можно 1 раз )

    Другие торренты по теме:

  • UglyDolls. Куклы с характером / UglyDolls (2019) BDRip [H.264 / 1080p]


    • Комментарии (0):

      Информация

      Информация

        Посетители, находящиеся в группе Гости, не могут оставлять комментарии в данной новости.

        ↓ Меню




        ↓ Опрос

        Вы добавили сайт в закладки?
        Да
        Нет


        Популярное

        Футурама / Futurama (1999-2013) DVDRip (7 Сезонов, 140 серии) скачать через торрент бесплатно

        (скачиваний: 31)
        Роберт Кийосаки | Богатый папа, бедный папа для подростков (2014) [PDF, FB2]

        (скачиваний: 29)
        Анна Рольская | Основы каллиграфии и леттеринга (2017) [PDF]

        (скачиваний: 18)
        Питер Браун | Дикий робот. Спасение дикого робота [2 книги] (2019) [PDF, FB2]

        (скачиваний: 17)
        Оранжевая корова (2018-2019) WEB-DLRip [H.264 / 720p-LQ] (сезон 1, серии 1-3 из 20)

        (скачиваний: 15)
        Александр Никонов | Физика на пальцах. Для детей и родителей, которые хотят объяснять детям (2016) [PDF]

        (скачиваний: 14)
        Пластилинки. Циферки (2018-2019) WEB-DLRip [H.264 / 720p-LQ] (сезон 1, серии 1-6 из 10)

        (скачиваний: 13)
        Эдвард Хэлловэлл, Джон Рэйти | Почему я отвлекаюсь. Как распознать синдром дефицита внимания у взрослых и детей и что с ним делать (2016) [FB2]

        (скачиваний: 13)
        Джоан Кэтлин Роулинг | Гарри Поттер. Полное собрание [7 книг] (2005-2007) [PDF, DJVU, FB2, EPUB]

        (скачиваний: 13)
        Гого: приключение с английским / GOGOs Adventures with English (1995) WEBRip (Сезон 1, серий 39 из 39) [EN] скачать через торрент бесплатно

        (скачиваний: 12)