.
Авторизация | Регистрация

torrentbox.xyz

» » Радости и печали маленького лорда (2003) DVDRip торрент скачать бесплатно


    Радости и печали маленького лорда (2003) DVDRip торрент скачать бесплатно

    Дата: 26-09-2019, 05:00 | .torrent скачали: 0

    Радости и печали маленького лорда (2003) DVDRipПроизводство: Россия
    Жанр: Семейный, Сказка, Драма
    Режиссер: Иван Попов

    Актеры
    Станислав Сергеевич Говорухин, Ольга Будина, Олег Менделевич Шкловский, Сергей Ишханович Газаров, Алексей Веселкин
    Описание : В небольшом американском городке позапрошлого века растет восьмилетний мальчик, сын скромной учительницы музыки. Друзья уважают его за доброту и справедливость, и Седрик - так зовут мальчика, - дорожит их уважением. Равно как и памятью отца, которого он никогда не видел. Седрик привык думать, что мать и ее рассказы об отце это и есть вся его семья. Но однажды он узнает, что далеко за океаном, в огромном английском поместье, живет старый граф, в доме которого есть такой же портрет молодого офицера, как и на столе у матери Седрика...

    Возраст: 0+ (для любого возраста)
    Продолжительность: 01: 27: 16
    Качество видео: DVDRip (700 mb)
    Видео: XviD, 704x416, ~1700 Kbps
    Аудио: AC3, 6 ch, 448 Kbps

    Общее
    Полное имя : Радости и печали маленького лорда.2002.DVDRip.almikl.nnmclub.avi
    Формат : AVI
    Формат/Информация : Audio Video Interleave
    Размер файла : 1, 37 Гбайт
    Продолжительность : 1 ч. 29 м.
    Общий поток : 2184 Кбит/сек
    Программа кодирования : VirtualDubMod 1.5.4.1 (build 2178/release)
    Библиотека кодирования : VirtualDubMod build 2178/release
    Видео
    Идентификатор : 0
    Формат : MPEG-4 Visual
    Профиль формата : Advanced Simple@L5
    Настройки формата : BVOP1/Custom Matrix
    Параметр BVOP формата : 1
    Параметр QPel формата : Нет
    Параметр GMC формата : Без точки перехода
    Параметр матрицы формата : Выборочная
    Идентификатор кодека : XVID
    Идентификатор кодека/Подсказка : XviD
    Продолжительность : 1 ч. 29 м.
    Битрейт : 1729 Кбит/сек
    Ширина : 720 пикселей
    Высота : 416 пикселей
    Соотношение сторон : 1, 731
    Частота кадров : 25, 000 кадров/сек
    Цветовое пространство : YUV
    Субдискретизация насыщенности : 4: 2: 0
    Битовая глубина : 8 бит
    Тип развёртки : Прогрессивная
    Метод сжатия : С потерями
    Бит/(Пиксели*Кадры) : 0.231
    Размер потока : 1, 08 Гбайт (79%)
    Библиотека кодирования : XviD 73
    Аудио
    Идентификатор : 1
    Формат : AC-3
    Формат/Информация : Audio Coding 3
    Коммерческое название : Dolby Digital
    Идентификатор кодека : 2000
    Продолжительность : 1 ч. 29 м.
    Вид битрейта : Постоянный
    Битрейт : 448 Кбит/сек
    Каналы : 6 каналов
    ChannelLayout : L R C LFE Ls Rs
    Частота : 48, 0 КГц
    Частота кадров : 31, 250 кадров/сек (1536 SPF)
    Метод сжатия : С потерями
    Размер потока : 287 Мбайт (21%)
    Выравнивание : Разделение по промежуткам
    Продолжительность промежутка : 96 мс. (2, 40 видеокадра)
    Время предзагрузки промежутка : 96 мс.
    ServiceKind/String : Complete Main

    Скриншоты для ознакомления


    Все одноименные релизы в Клубе
    Время раздачи: 24/7 (до появления первых 3-5 скачавших)


    Онлайн видео Холодное сердце



    Радости и печали маленького лорда (2003) DVDRip
    Рейтинг →
     (голосов: 1, оценка 4/5, голосовать можно 1 раз )

    Другие торренты по теме:

  • Женские радости и печали (1982) TVRip скачать через торрент бесплатно
  • От печали до радости (2016) HDTVRip (серии 1-2 из 2)
  • Вера Королёва | Свет радости в мире печали. Митрополит Алма-Атинский и Казахстанский Иосиф (2004) [FB2, EPUB, PDF]
  • Печали и радости мастера Иванова (2013) WEBRip
  • Радости и печали маленького лорда (2003) DVDRip
  • Радости и печали маленького лорда (2003) DVDRemux
  • Радости и печали маленького лорда (2003) DVDRip [H.264]
  • Радости и печали маленького лорда (2003) DVD9


    • Комментарии (0):

      Информация

      Информация

        Посетители, находящиеся в группе Гости, не могут оставлять комментарии в данной новости.

        ↓ Меню




        ↓ Опрос

        Вы добавили сайт в закладки?
        Да
        Нет


        Популярное

        Футурама / Futurama (1999-2013) DVDRip (7 Сезонов, 140 серии) скачать через торрент бесплатно

        (скачиваний: 31)
        Роберт Кийосаки | Богатый папа, бедный папа для подростков (2014) [PDF, FB2]

        (скачиваний: 29)
        Анна Рольская | Основы каллиграфии и леттеринга (2017) [PDF]

        (скачиваний: 18)
        Питер Браун | Дикий робот. Спасение дикого робота [2 книги] (2019) [PDF, FB2]

        (скачиваний: 17)
        Оранжевая корова (2018-2019) WEB-DLRip [H.264 / 720p-LQ] (сезон 1, серии 1-3 из 20)

        (скачиваний: 15)
        Александр Никонов | Физика на пальцах. Для детей и родителей, которые хотят объяснять детям (2016) [PDF]

        (скачиваний: 14)
        Пластилинки. Циферки (2018-2019) WEB-DLRip [H.264 / 720p-LQ] (сезон 1, серии 1-6 из 10)

        (скачиваний: 13)
        Эдвард Хэлловэлл, Джон Рэйти | Почему я отвлекаюсь. Как распознать синдром дефицита внимания у взрослых и детей и что с ним делать (2016) [FB2]

        (скачиваний: 13)
        Джоан Кэтлин Роулинг | Гарри Поттер. Полное собрание [7 книг] (2005-2007) [PDF, DJVU, FB2, EPUB]

        (скачиваний: 13)
        Гого: приключение с английским / GOGOs Adventures with English (1995) WEBRip (Сезон 1, серий 39 из 39) [EN] скачать через торрент бесплатно

        (скачиваний: 12)