.
Авторизация | Регистрация

torrentbox.xyz

» » Радости и печали маленького лорда (2003) DVDRip торрент скачать бесплатно


    Радости и печали маленького лорда (2003) DVDRip торрент скачать бесплатно

    Дата: 26-09-2019, 05:00 | .torrent скачали: 0

    Радости и печали маленького лорда (2003) DVDRipПроизводство: Россия
    Жанр: Семейный, Сказка, Драма
    Режиссер: Иван Попов

    Актеры
    Станислав Сергеевич Говорухин, Ольга Будина, Олег Менделевич Шкловский, Сергей Ишханович Газаров, Алексей Веселкин
    Описание : В небольшом американском городке позапрошлого века растет восьмилетний мальчик, сын скромной учительницы музыки. Друзья уважают его за доброту и справедливость, и Седрик - так зовут мальчика, - дорожит их уважением. Равно как и памятью отца, которого он никогда не видел. Седрик привык думать, что мать и ее рассказы об отце это и есть вся его семья. Но однажды он узнает, что далеко за океаном, в огромном английском поместье, живет старый граф, в доме которого есть такой же портрет молодого офицера, как и на столе у матери Седрика...

    Возраст: 0+ (для любого возраста)
    Продолжительность: 01: 27: 16
    Качество видео: DVDRip (700 mb)
    Видео: XviD, 704x416, ~900 Kbps
    Аудио: MP3, 2 ch, 128 Kbps

    Общее
    Полное имя : Радости и печали маленького лорда.2002.DVDRip.700.almikl.nnmclub.avi
    Формат : AVI
    Формат/Информация : Audio Video Interleave
    Размер файла : 700 Мбайт
    Продолжительность : 1 ч. 29 м.
    Режим общего битрейта : Переменный
    Общий поток : 1092 Кбит/сек
    Программа кодирования : VirtualDubMod 1.5.4.1 (build 2178/release)
    Библиотека кодирования : VirtualDubMod build 2178/release
    Видео
    Идентификатор : 0
    Формат : MPEG-4 Visual
    Профиль формата : Advanced Simple@L5
    Настройки формата : BVOP1/Custom Matrix
    Параметр BVOP формата : 1
    Параметр QPel формата : Нет
    Параметр GMC формата : Без точки перехода
    Параметр матрицы формата : Выборочная
    Идентификатор кодека : XVID
    Идентификатор кодека/Подсказка : XviD
    Продолжительность : 1 ч. 29 м.
    Битрейт : 967 Кбит/сек
    Ширина : 720 пикселей
    Высота : 416 пикселей
    Соотношение сторон : 1, 731
    Частота кадров : 25, 000 кадров/сек
    Цветовое пространство : YUV
    Субдискретизация насыщенности : 4: 2: 0
    Битовая глубина : 8 бит
    Тип развёртки : Прогрессивная
    Метод сжатия : С потерями
    Бит/(Пиксели*Кадры) : 0.129
    Размер потока : 620 Мбайт (89%)
    Библиотека кодирования : XviD 73
    Аудио
    Идентификатор : 1
    Формат : MPEG Audio
    Версия формата : Version 1
    Профиль формата : Layer 3
    Настройки формата : Joint stereo/MS Stereo
    Идентификатор кодека : 55
    Идентификатор кодека/Подсказка : MP3
    Продолжительность : 1 ч. 29 м.
    Вид битрейта : Переменный
    Битрейт : 112 Кбит/сек
    Номинальный битрейт : 128 Кбит/сек
    Каналы : 2 канала
    Частота : 48, 0 КГц
    Частота кадров : 41, 667 кадра/сек (1152 SPF)
    Метод сжатия : С потерями
    Размер потока : 71, 8 Мбайт (10%)
    Выравнивание : Соединение по промежуткам
    Продолжительность промежутка : 24 мс. (0, 60 видеокадр)
    Время предзагрузки промежутка : 548 мс.
    Библиотека кодирования : LAME3.98r
    Настройки программы : -m j -V 4 -q 2 -lowpass 17 --abr 128

    Скриншоты для ознакомления


    Все одноименные релизы в Клубе
    Время раздачи: 24/7 (до появления первых 3-5 скачавших)


    Онлайн видео Холодное сердце



    Радости и печали маленького лорда (2003) DVDRip
    Рейтинг →
     (голосов: 1, оценка 5/5, голосовать можно 1 раз )

    Другие торренты по теме:

  • Женские радости и печали (1982) TVRip скачать через торрент бесплатно
  • От печали до радости (2016) HDTVRip (серии 1-2 из 2)
  • Вера Королёва | Свет радости в мире печали. Митрополит Алма-Атинский и Казахстанский Иосиф (2004) [FB2, EPUB, PDF]
  • Печали и радости мастера Иванова (2013) WEBRip
  • Радости и печали маленького лорда (2003) DVDRip
  • Радости и печали маленького лорда (2003) DVDRemux
  • Радости и печали маленького лорда (2003) DVDRip [H.264]
  • Радости и печали маленького лорда (2003) DVD9


    • Комментарии (0):

      Информация

      Информация

        Посетители, находящиеся в группе Гости, не могут оставлять комментарии в данной новости.

        ↓ Меню




        ↓ Опрос

        Вы добавили сайт в закладки?
        Да
        Нет


        Популярное