.
Авторизация | Регистрация

torrentbox.xyz

» » Радости и печали маленького лорда (2003) DVDRemux торрент скачать бесплатно


    Радости и печали маленького лорда (2003) DVDRemux торрент скачать бесплатно

    Дата: 27-09-2019, 05:00 | .torrent скачали: 0

    Радости и печали маленького лорда (2003) DVDRemuxПроизводство: Россия
    Жанр: Семейный, Сказка, Драма
    Режиссер: Иван Попов

    Актеры
    Станислав Сергеевич Говорухин, Ольга Будина, Олег Менделевич Шкловский, Сергей Ишханович Газаров, Алексей Веселкин
    Описание : В небольшом американском городке позапрошлого века растет восьмилетний мальчик, сын скромной учительницы музыки. Друзья уважают его за доброту и справедливость, и Седрик - так зовут мальчика, - дорожит их уважением. Равно как и памятью отца, которого он никогда не видел. Седрик привык думать, что мать и ее рассказы об отце это и есть вся его семья. Но однажды он узнает, что далеко за океаном, в огромном английском поместье, живет старый граф, в доме которого есть такой же портрет молодого офицера, как и на столе у матери Седрика...

    Возраст: 0+ (для любого возраста)
    Продолжительность: 01: 27: 16
    Качество видео: DVDRemux
    Видео: MPEG-2, 720x576@768x576, ~6000 Kbps
    Аудио: AC3, 6 ch, 448 Kbps

    Общее
    Уникальный идентификатор : 276425161904951085627473715169116430153 (0xCFF58CB723A74A165B7A852637F21F49)
    Полное имя : Радости и печали маленького лорда.2002.DVDRemux.almikl.nnmclub.mkv
    Формат : Matroska
    Версия формата : Version 2
    Размер файла : 4, 48 Гбайт
    Продолжительность : 1 ч. 29 м.
    Режим общего битрейта : Переменный
    Общий поток : 7154 Кбит/сек
    Дата кодирования : UTC 2019-09-14 07: 58: 34
    Программа кодирования : MakeMKV v1.14.3 win(x64-release)
    Библиотека кодирования : libmakemkv v1.14.3 (1.3.5/1.4.7) win(x64-release)
    Видео
    Идентификатор : 1
    OriginalSourceMedium_ID/String : 224 (0xE0)
    Формат : MPEG Video
    Версия формата : Version 2
    Профиль формата : Main@Main
    Настройки формата : CustomMatrix/BVOP
    Параметр BVOP формата : Да
    Параметр матрицы формата : Выборочная
    Параметр GOP формата : M=3, N=15
    Структура изображения : Frame
    Идентификатор кодека : V_MPEG2
    Идентификатор кодека/Информация : MPEG 1 or 2 Video
    Продолжительность : 1 ч. 29 м.
    Вид битрейта : Переменный
    Битрейт : 5937 Кбит/сек
    Максимальный битрейт : 6000 Кбит/сек
    Ширина : 720 пикселей
    Высота : 576 пикселей
    Соотношение сторон : 4: 3
    Режим частоты кадров : Постоянный
    Частота кадров : 25, 000 кадров/сек
    Стандарт вещания : PAL
    Цветовое пространство : YUV
    Субдискретизация насыщенности : 4: 2: 0
    Битовая глубина : 8 бит
    Тип развёртки : Чересстрочная
    Порядок развёртки : Верхнее поле первое
    Метод сжатия : С потерями
    Бит/(Пиксели*Кадры) : 0.573
    Временной код первого кадра : 00: 00: 09: 00
    Оригинал временного кода : Group of pictures t_head
    GOP, открыто/закрыто : Закрыто
    Размер потока : 3, 72 Гбайт (83%)
    Язык : English
    Default : Нет
    Forced : Нет
    Носитель оригинала : DVD-Video
    Аудио #1
    Идентификатор : 2
    OriginalSourceMedium_ID/String : 189 (0xBD)128 (0x80)
    Формат : AC-3
    Формат/Информация : Audio Coding 3
    Коммерческое название : Dolby Digital
    Идентификатор кодека : A_AC3
    Продолжительность : 1 ч. 29 м.
    Вид битрейта : Постоянный
    Битрейт : 448 Кбит/сек
    Каналы : 6 каналов
    ChannelLayout : L R C LFE Ls Rs
    Частота : 48, 0 КГц
    Частота кадров : 31, 250 кадров/сек (1536 SPF)
    Метод сжатия : С потерями
    Размер потока : 287 Мбайт (6%)
    Заголовок : Surround 5.1
    Язык : Russian
    ServiceKind/String : Complete Main
    Default : Да
    Forced : Нет
    Носитель оригинала : DVD-Video
    Аудио #2
    Идентификатор : 3
    OriginalSourceMedium_ID/String : 189 (0xBD)137 (0x89)
    Формат : DTS
    Формат/Информация : Digital Theater Systems
    Идентификатор кодека : A_DTS
    Продолжительность : 1 ч. 29 м.
    Вид битрейта : Постоянный
    Битрейт : 755 Кбит/сек
    Каналы : 6 каналов
    ChannelLayout : C L R Ls Rs LFE
    Частота : 48, 0 КГц
    Частота кадров : 93, 750 кадра/сек (512 SPF)
    Битовая глубина : 24 бит
    Метод сжатия : С потерями
    Размер потока : 484 Мбайт (11%)
    Заголовок : Surround 5.1
    Язык : Russian
    Default : Нет
    Forced : Нет
    Носитель оригинала : DVD-Video
    Текст #1
    Идентификатор : 4
    OriginalSourceMedium_ID/String : 189 (0xBD)32 (0x20)
    Формат : VobSub
    Идентификатор кодека : S_VOBSUB
    Идентификатор кодека/Информация : Picture based subtitle format used on DVDs
    Продолжительность : 1 ч. 24 м.
    Битрейт : 3922 бит/сек
    ElementCount : 778
    Размер потока : 2, 38 Мбайт (0%)
    Язык : Russian
    Default : Да
    Forced : Нет
    Носитель оригинала : DVD-Video
    Текст #2
    Идентификатор : 5
    OriginalSourceMedium_ID/String : 189 (0xBD)33 (0x21)
    Формат : VobSub
    Идентификатор кодека : S_VOBSUB
    Идентификатор кодека/Информация : Picture based subtitle format used on DVDs
    Продолжительность : 1 ч. 28 м.
    Битрейт : 4928 бит/сек
    ElementCount : 1310
    Размер потока : 3, 13 Мбайт (0%)
    Язык : English
    Default : Нет
    Forced : Нет
    Носитель оригинала : DVD-Video
    Меню
    00: 00: 00.080 : en: Chapter 01
    00: 01: 46.280 : en: Chapter 02
    00: 04: 25.280 : en: Chapter 03
    00: 08: 28.880 : en: Chapter 04
    00: 11: 28.280 : en: Chapter 05
    00: 16: 42.080 : en: Chapter 06
    00: 19: 39.680 : en: Chapter 07
    00: 22: 46.880 : en: Chapter 08
    00: 26: 51.080 : en: Chapter 09
    00: 30: 27.680 : en: Chapter 10
    00: 34: 06.680 : en: Chapter 11
    00: 39: 01.880 : en: Chapter 12
    00: 42: 48.680 : en: Chapter 13
    00: 47: 49.280 : en: Chapter 14
    00: 54: 50.480 : en: Chapter 15
    01: 03: 06.080 : en: Chapter 16
    01: 09: 51.080 : en: Chapter 17
    01: 18: 43.280 : en: Chapter 18
    01: 24: 33.080 : en: Chapter 19

    Скриншоты для ознакомления


    Все одноименные релизы в Клубе
    Время раздачи: 24/7 (до появления первых 3-5 скачавших)


    Онлайн видео Кристине Нёстлингер



    Радости и печали маленького лорда (2003) DVDRemux
    Рейтинг →
     (голосов: 1, оценка 3/5, голосовать можно 1 раз )

    Другие торренты по теме:

  • Женские радости и печали (1982) TVRip скачать через торрент бесплатно
  • От печали до радости (2016) HDTVRip (серии 1-2 из 2)
  • Вера Королёва | Свет радости в мире печали. Митрополит Алма-Атинский и Казахстанский Иосиф (2004) [FB2, EPUB, PDF]
  • Печали и радости мастера Иванова (2013) WEBRip
  • Радости и печали маленького лорда (2003) DVDRip
  • Радости и печали маленького лорда (2003) DVDRip
  • Радости и печали маленького лорда (2003) DVDRip [H.264]
  • Радости и печали маленького лорда (2003) DVD9


    • Комментарии (0):

      Информация

      Информация

        Посетители, находящиеся в группе Гости, не могут оставлять комментарии в данной новости.

        ↓ Меню




        ↓ Опрос

        Вы добавили сайт в закладки?
        Да
        Нет


        Популярное