.
Авторизация | Регистрация

torrentbox.xyz

» » Радости и печали маленького лорда (2003) DVDRip [H.264] торрент скачать бесплатно


    Радости и печали маленького лорда (2003) DVDRip [H.264] торрент скачать бесплатно

    Дата: 27-09-2019, 05:00 | .torrent скачали: 0

    Радости и печали маленького лорда (2003) DVDRip [H.264]Производство: Россия
    Жанр: Семейный, Сказка, Драма
    Режиссер: Иван Попов

    Актеры
    Станислав Сергеевич Говорухин, Ольга Будина, Олег Менделевич Шкловский, Сергей Ишханович Газаров, Алексей Веселкин
    Описание : В небольшом американском городке позапрошлого века растет восьмилетний мальчик, сын скромной учительницы музыки. Друзья уважают его за доброту и справедливость, и Седрик - так зовут мальчика, - дорожит их уважением. Равно как и памятью отца, которого он никогда не видел. Седрик привык думать, что мать и ее рассказы об отце это и есть вся его семья. Но однажды он узнает, что далеко за океаном, в огромном английском поместье, живет старый граф, в доме которого есть такой же портрет молодого офицера, как и на столе у матери Седрика...

    Возраст: 0+ (для любого возраста)
    Продолжительность: 01: 27: 16
    Качество видео: DVDRip
    Видео: AVCH.264, 704x388, ~2000 Kbps
    Аудио: AC3, 6 ch, 448 Kbps

    Общее
    Уникальный идентификатор : 26990138817874729867713734955400970852 (0x144E1C957044DE8ADA27AB4A7FC04264)
    Полное имя : Радости и печали маленького лорда.2002.DVDRip.h264.almikl.nnmclub.mkv
    Формат : Matroska
    Версия формата : Version 2
    Размер файла : 1, 57 Гбайт
    Продолжительность : 1 ч. 29 м.
    Общий поток : 2502 Кбит/сек
    Дата кодирования : UTC 2019-09-14 12: 21: 01
    Программа кодирования : mkvmerge v36.0.0 (\'Is That Jazz?\') 64-bit
    Библиотека кодирования : libebml v1.3.9 + libmatroska v1.5.2
    Видео
    Идентификатор : 1
    Формат : AVC
    Формат/Информация : Advanced Video Codec
    Профиль формата : High@L4.1
    Настройки формата : CABAC/7 Ref Frames
    Параметр CABAC формата : Да
    Параметр RefFrames формата : 7 кадров
    Идентификатор кодека : V_MPEG4/ISO/AVC
    Продолжительность : 1 ч. 29 м.
    Битрейт : 2052 Кбит/сек
    Ширина : 704 пикселя
    Высота : 388 пикселей
    Соотношение сторон : 16: 9
    Режим частоты кадров : Постоянный
    Частота кадров : 25, 000 кадров/сек
    Цветовое пространство : YUV
    Субдискретизация насыщенности : 4: 2: 0
    Битовая глубина : 8 бит
    Тип развёртки : Прогрессивная
    Бит/(Пиксели*Кадры) : 0.300
    Размер потока : 1, 28 Гбайт (82%)
    Библиотека кодирования : x264 core 157 r2969 d4099dd
    Настройки программы : cabac=1/ref=7/deblock=1: -2: -2/analyse=0x3: 0x133/me=umh/subme=10/psy=1/psy_rd=1.00: 0.25/mixed_ref=1/me_range=24/chroma_me=1/trellis=2/8x8dct=1/cqm=0/deadzone=6, 6/fast_pskip=0/chroma_qp_offset=-4/threads=6/lookahead_threads=1/sliced_threads=0/nr=0/decimate=0/interlaced=0/bluray_compat=0/constrained_intra=0/bframes=9/b_pyramid=2/b_adapt=2/b_bias=0/direct=1/weightb=1/open_gop=0/weightp=2/keyint=240/keyint_min=23/scenecut=40/intra_refresh=0/rc_lookahead=40/rc=2pass/mbtree=1/bitrate=2052/ratetol=1.0/qcomp=0.60/qpmin=0/qpmax=69/qpstep=4/cplxblur=20.0/qblur=0.5/vbv_maxrate=50000/vbv_bufsize=62500/nal_hrd=none/filler=0/ip_ratio=1.10/aq=3: 0.80
    Default : Да
    Forced : Нет
    Аудио
    Идентификатор : 2
    Формат : AC-3
    Формат/Информация : Audio Coding 3
    Коммерческое название : Dolby Digital
    Идентификатор кодека : A_AC3
    Продолжительность : 1 ч. 29 м.
    Вид битрейта : Постоянный
    Битрейт : 448 Кбит/сек
    Каналы : 6 каналов
    ChannelLayout : L R C LFE Ls Rs
    Частота : 48, 0 КГц
    Частота кадров : 31, 250 кадров/сек (1536 SPF)
    Метод сжатия : С потерями
    Размер потока : 287 Мбайт (18%)
    Язык : new
    ServiceKind/String : Complete Main
    Default : Да
    Forced : Нет

    Скриншоты для ознакомления


    Все одноименные релизы в Клубе
    Время раздачи: 24/7 (до появления первых 3-5 скачавших)


    Онлайн видео Кристине Нёстлингер



    Радости и печали маленького лорда (2003) DVDRip [H.264]
    Рейтинг →
     (голосов: 1, оценка 3/5, голосовать можно 1 раз )

    Другие торренты по теме:

  • Женские радости и печали (1982) TVRip скачать через торрент бесплатно
  • От печали до радости (2016) HDTVRip (серии 1-2 из 2)
  • Вера Королёва | Свет радости в мире печали. Митрополит Алма-Атинский и Казахстанский Иосиф (2004) [FB2, EPUB, PDF]
  • Печали и радости мастера Иванова (2013) WEBRip
  • Радости и печали маленького лорда (2003) DVDRip
  • Радости и печали маленького лорда (2003) DVDRip
  • Радости и печали маленького лорда (2003) DVDRemux
  • Радости и печали маленького лорда (2003) DVD9


    • Комментарии (0):

      Информация

      Информация

        Посетители, находящиеся в группе Гости, не могут оставлять комментарии в данной новости.

        ↓ Меню




        ↓ Опрос

        Вы добавили сайт в закладки?
        Да
        Нет


        Популярное