.
Авторизация | Регистрация

torrentbox.xyz

» » Би-Би-Знайки (2018) WEB-DL [H.264 / 720p-LQ] (сезон 1, серии 1-32 из 32) [Обновляемая] торрент скачать бесплатно


    Би-Би-Знайки (2018) WEB-DL [H.264 / 720p-LQ] (сезон 1, серии 1-32 из 32) [Обновляемая] торрент скачать бесплатно

    Дата: 27-09-2019, 05:00 | .torrent скачали: 0

    Би-Би-Знайки (2018) WEB-DL [H.264 / 720p-LQ] (сезон 1, серии 1-32 из 32) [Обновляемая]Жанр: Мультсериал, обучающий, познавательный
    Производство: Беларусь/Cubincup Animation Studio
    Режиссер: Денис Соловьев
    Персонажи: Соня, Сева, Софи, Даня, Тима и Тёма

    Актеры
    Ксения Левчик, Дарья Парамонова, Екатерина Мостовая, Роман Казак, Татьяна Модесная

    Описание

    Обучающий мультфильм для самых маленьких о буквах русского алфавита. Веселые машинки вместе с малышами учатся читать и писать с помощью игр и песен. Музыкальная анимационная азбука Би-Би-Знайки состоит из красочных трехминутных выпусков, превращающих учебу в удовольствие для детей и родителей. Каждый из уроков в игровой форме знакомит зрителей-дошкольников со всеми буквами от А до Я, находя для каждой понятные ассоциации. Легко запоминающиеся песенки помогают не только усваивать, но и закреплять новый материал. Еще никогда азбука не была такой веселой и занимательной!
    Возраст: 0+ (для любой зрительской аудитории)
    Релиз от: Natasha77
    Продолжительность: 00: 03: 00 серия
    Качество видео: WEB-DL
    Перевод: Не требуется (Русский)
    Субтитры: Отсутствуют
    Видео: AVC/H.264, 1280x720, ~2569 kbps
    Аудио: Русский: AAC, 2 ch, 256 kbps
    Общее
    Уникальный идентификатор : 1811526046047440785398776647791379375 (0x15CE3213969494A1CC22FDA3FF783AF)
    Полное имя : E: 15_Буква Н.mkv
    Формат : Matroska
    Версия формата : Version 4
    Размер файла : 59, 6 Мбайт
    Продолжительность : 3 м. 0 с.
    Общий поток : 2777 Кбит/сек
    Дата кодирования : UTC 2019-09-26 04: 44: 25
    Программа кодирования : mkvmerge v37.0.0 (\'Leave It\') 32-bit
    Библиотека кодирования : libebml v1.3.9 + libmatroska v1.5.2
    Видео
    Идентификатор : 1
    Формат : AVC
    Формат/Информация : Advanced Video Codec
    Профиль формата : High@L4
    Настройки формата : CABAC/4 Ref Frames
    Параметр CABAC формата : Да
    Параметр RefFrames формата : 4 кадра
    Идентификатор кодека : V_MPEG4/ISO/AVC
    Продолжительность : 3 м. 0 с.
    Битрейт : 2569 Кбит/сек
    Ширина : 1280 пикселей
    Высота : 720 пикселей
    Соотношение сторон : 16: 9
    Режим частоты кадров : Постоянный
    Частота кадров : 25, 000 кадров/сек
    Цветовое пространство : YUV
    Субдискретизация насыщенности : 4: 2: 0
    Битовая глубина : 8 бит
    Тип развёртки : Прогрессивная
    Бит/(Пиксели*Кадры) : 0.112
    Размер потока : 54, 1 Мбайт (91%)
    Библиотека кодирования : x264 core 148
    Default : Да
    Forced : Нет
    Аудио
    Идентификатор : 2
    Формат : AAC LC
    Формат/Информация : Advanced Audio Codec Low Complexity
    Идентификатор кодека : A_AAC-2
    Продолжительность : 3 м. 0 с.
    Битрейт : 256 Кбит/сек
    Каналы : 2 канала
    ChannelLayout : L R
    Частота : 48, 0 КГц
    Частота кадров : 46, 875 кадров/сек (1024 SPF)
    Метод сжатия : С потерями
    Задержка видео : -43 мс.
    Размер потока : 5, 49 Мбайт (9%)
    Язык : Russian
    Default : Да
    Forced : Нет
    Би-Би-Знайки — это веселый обучающий мультсериал, который в игровой форме поможет детям получить новые для них знания. Главные герои мультфильма — машинки Соня, Сева, Софи, Даня, Тима и Тёма, которые при помощи песен объяснят детям самые простые, но такие необходимые для них вещи. Первый сезон любимого сериала Би-Би-Знаек помогает изучить алфавит: каждый эпизод посвящен какой-либо букве, которая обыгрывается персонажами легко, доступно и весело. Мультфильм будет интересен и полезен малышам самого младшего возраста.
    Обучающий песенно-танцевальный мультипликационный сериал Би-Би-Знайки — это проект, созданный белорусской анимационной студией Кабинкап, существующей с 2011 года и занимающейся производством мультфильмов, клипов и рекламных роликов. За время своего существования эта студия уже успела порадовать своих маленьких зрителей фантастическим мультипликационным 3D сериалом Робики. Би-Би-Знайки стали вторым большим творением этой компании, которое аниматоры воплотили в жизнь совместно с производителем игрушек Полесье. Именно милые игрушки-машинки, выпускаемые Полесьем, и стали прототипами персонажей Би-Би-Знаек.
    Первый сезон любимого сериала анимационного музыкального сериала Би-Би-Знайки состоит из тридцати двух серий, каждая из которых имеет длительность в три минуты. Это оптимальное время просмотра для малышей самого младшего возраста. Красочная, живая, но умеренно яркая анимация, хорошо прописанный текст и симпатичные персонажи — всё это помогает детям усвоить информацию легко и быстро, а рифмы и повторения способствуют максимально комфортному запоминанию. Вместе с персонажами-машинками у детей есть возможность стать героями увлекательных, веселых, а главное добрых историй, которые созданы сценаристами с учетом детских потребностей и детской психики.


    Онлайн видео Би-Би-Знайки (2018) WEB-DL [H.264



    Би-Би-Знайки (2018) WEB-DL [H.264/720p-LQ] (сезон 1, серии 1-32 из 32) [Обновляемая]
    Рейтинг →
     (голосов: 1, оценка 5/5, голосовать можно 1 раз )

    Другие торренты по теме:



      Комментарии (0):

      Информация

      Информация

        Посетители, находящиеся в группе Гости, не могут оставлять комментарии в данной новости.

        ↓ Меню




        ↓ Опрос

        Вы добавили сайт в закладки?
        Да
        Нет


        Популярное

        Футурама / Futurama (1999-2013) DVDRip (7 Сезонов, 140 серии) скачать через торрент бесплатно

        (скачиваний: 31)
        Роберт Кийосаки | Богатый папа, бедный папа для подростков (2014) [PDF, FB2]

        (скачиваний: 29)
        Анна Рольская | Основы каллиграфии и леттеринга (2017) [PDF]

        (скачиваний: 18)
        Питер Браун | Дикий робот. Спасение дикого робота [2 книги] (2019) [PDF, FB2]

        (скачиваний: 17)
        Оранжевая корова (2018-2019) WEB-DLRip [H.264 / 720p-LQ] (сезон 1, серии 1-3 из 20)

        (скачиваний: 15)
        Александр Никонов | Физика на пальцах. Для детей и родителей, которые хотят объяснять детям (2016) [PDF]

        (скачиваний: 14)
        Пластилинки. Циферки (2018-2019) WEB-DLRip [H.264 / 720p-LQ] (сезон 1, серии 1-6 из 10)

        (скачиваний: 13)
        Эдвард Хэлловэлл, Джон Рэйти | Почему я отвлекаюсь. Как распознать синдром дефицита внимания у взрослых и детей и что с ним делать (2016) [FB2]

        (скачиваний: 13)
        Джоан Кэтлин Роулинг | Гарри Поттер. Полное собрание [7 книг] (2005-2007) [PDF, DJVU, FB2, EPUB]

        (скачиваний: 13)
        Гого: приключение с английским / GOGOs Adventures with English (1995) WEBRip (Сезон 1, серий 39 из 39) [EN] скачать через торрент бесплатно

        (скачиваний: 12)