.
Авторизация | Регистрация

torrentbox.xyz

» » Autumn 2019 Anime Preview | Осень 2019 Превью Аниме [2019, обзор] WEBRip 720p raw торрент скачать бесплатно


    Autumn 2019 Anime Preview | Осень 2019 Превью Аниме [2019, обзор] WEBRip 720p raw торрент скачать бесплатно

    Дата: 27-09-2019, 05:00 | .torrent скачали: 0

    Autumn 2019 Anime Preview | Осень 2019 Превью Аниме [2019, обзор] WEBRip 720p rawТип: обзор
    Продолжительность: 47 минут
    Дата выпуска: осень 2019
    Производство: Япония

    Описание

    Анонсы аниме сезон любимого сериалаа осень 2019
    Более подробно с описанием каждого аниме можете познакомитьсяздесь
    Язык озвучки: Японский
    Субтитры: Английские (названия аниме)
    Качество видео: WEBRip
    Видео: AVC/H.264, 1280х720, 23.976 fps, ~1410 Kbps
    Аудио: AAC LC, 2 ch, 44.1 kHz, ~123 kbps

    Скриншоты для ознакомления



    Общее
    Полное имя : G: FansubDB Autumn 2019 Anime Preview (1280x720 h264 AAC) 9AF6833D.mkv
    Формат : Matroska
    Версия формата : Version 4
    Размер файла : 522 Мбайт
    Продолжительность : 47 м. 32 с.
    Общий поток : 1535 Кбит/сек
    Дата кодирования : UTC 2019-09-25 22: 23: 57
    Программа кодирования : mkvmerge v19.0.0 (\'Brave Captain\') 64-bit
    Библиотека кодирования : libebml v1.3.5 + libmatroska v1.4.8
    Attachments : ARLRDBD.TTF
    Видео
    Идентификатор : 1
    Формат : AVC
    Формат/Информация : Advanced Video Codec
    Профиль формата : High@L5
    Настройки формата : CABAC/16 Ref Frames
    Параметр CABAC формата : Да
    Параметр RefFrames формата : 16 кадров
    Идентификатор кодека : V_MPEG4/ISO/AVC
    Продолжительность : 47 м. 32 с.
    Битрейт : 1410 Кбит/сек
    Ширина : 1280 пикселей
    Высота : 720 пикселей
    Соотношение сторон : 16: 9
    Режим частоты кадров : Постоянный
    Частота кадров : 29, 970 (30000/1001) кадров/сек
    Цветовое пространство : YUV
    Субдискретизация насыщенности : 4: 2: 0
    Битовая глубина : 8 бит
    Тип развёртки : Прогрессивная
    Бит/(Пиксели*Кадры) : 0.051
    Размер потока : 479 Мбайт (92%)
    Библиотека кодирования : x264 core 155 r2867+74 66b5600 t_mod_Custom_2 8-bit@all X86
    Настройки программы : cabac=1/ref=16/deblock=1: 1: 1/analyse=0x3: 0x133/me=umh/subme=10/psy=1/fade_compensate=0.00/psy_rd=0.40: 0.00/mixed_ref=1/me_range=24/chroma_me=1/trellis=2/8x8dct=1/cqm=0/deadzone=21, 11/fast_pskip=1/chroma_qp_offset=-2/threads=12/lookahead_threads=3/sliced_threads=0/nr=0/decimate=1/interlaced=0/bluray_compat=0/constrained_intra=0/fgo=0/bframes=10/b_pyramid=2/b_adapt=2/b_bias=0/direct=3/weightb=1/open_gop=0/weightp=2/keyint=250/keyint_min=25/scenecut=40/intra_refresh=0/rc_lookahead=60/rc=crf/mbtree=1/crf=17.0000/qcomp=0.60/qpmin=0: 0: 0/qpmax=69: 69: 69/qpstep=4/ip_ratio=1.40/aq=1: 0.60/aq-sensitivity=10.00/aq-factor=1.00: 1.00: 1.00/aq2=0/aq3=0
    Язык : Japanese
    Default : Да
    Forced : Да
    Аудио
    Идентификатор : 2
    Формат : AAC LC
    Формат/Информация : Advanced Audio Codec Low Complexity
    Идентификатор кодека : A_AAC-2
    Продолжительность : 47 м. 32 с.
    Битрейт : 123 Кбит/сек
    Каналы : 2 канала
    ChannelLayout : L R
    Частота : 48, 0 КГц
    Частота кадров : 46, 875 кадров/сек (1024 SPF)
    Метод сжатия : С потерями
    Размер потока : 41, 7 Мбайт (8%)
    Язык : Japanese
    Default : Да
    Forced : Да
    Текст
    Идентификатор : 3
    Формат : ASS
    Идентификатор кодека : S_TEXT/ASS
    Идентификатор кодека/Информация : Advanced Sub Station Alpha
    Продолжительность : 46 м. 8 с.
    Битрейт : 8 бит/сек
    ElementCount : 50
    Метод сжатия : Без потерь
    Размер потока : 3, 02 Кбайт (0%)
    Язык : English
    Default : Да
    Forced : Да
    Время раздачи: 24/7 (круглосуточно) (до появления первых 3-5 скачавших) (до появления первых 3-5 скачавших)


    Онлайн видео Autumn 2019 Anime Preview



    Autumn 2019 Anime Preview | Осень 2019 Превью Аниме [2019, обзор] WEBRip 720p raw
    Рейтинг →
     (голосов: 1, оценка 4/5, голосовать можно 1 раз )

    Другие торренты по теме:

  • Autumn Of Communion - Autumn Of Communion 6 (2015) [FLAC|Lossless|WEB-DL]<Ambient, Experimental, Drone> скачать через торрент бесплатно
  • VA - Dance Hits Autumn 2014 (2014) [MP3|320 кб / с]<Club, Dance> скачать через торрент бесплатно
  • VA - Trance Autumn Weekend Vol.5 (2014) [MP3|320 кб / с]<Trance> скачать через торрент бесплатно
  • VA - Trance Autumn Weekend Vol.5 (2014) [MP3|320 кб / с]<Trance> скачать через торрент бесплатно
  • Sawmail - Autumn (2014) [FLAC|Lossless|WEB-DL]<Uplifting Trance>
  • Подшивка журналов | Outdoor Photography №№1 - 12 + autumn (2014) [PDF] [En]
  • VA - Trance Autumn Weekend Vol.8 (2014) [MP3|320 кб / с]<Trance> скачать через торрент бесплатно
  • An Autumn For Crippled Children - 4 Albums, 2 EP (2010-2014) [MP3|320 кб / с]<Atmospheric Black Metal, Depressive Black Metal>


    • Комментарии (0):

      Информация

      Информация

        Посетители, находящиеся в группе Гости, не могут оставлять комментарии в данной новости.

        ↓ Меню




        ↓ Опрос

        Вы добавили сайт в закладки?
        Да
        Нет


        Популярное