.
Авторизация | Регистрация

torrentbox.xyz

» » Герои в масках / Pj masks (2019) SATRip (сезон 3, серии 1-4 из 26) [обновляемая] торрент скачать бесплатно


    Герои в масках / Pj masks (2019) SATRip (сезон 3, серии 1-4 из 26) [обновляемая] торрент скачать бесплатно

    Дата: 28-09-2019, 05:00 | .torrent скачали: 0

    Герои в масках / Pj masks (2019) SATRip (сезон 3, серии 1-4 из 26) [обновляемая]Производство: Франция, Disney
    Жанр: Компьютерная анимация, мультфильм, фантастика, фэнтези, приключения, семейный
    Режиссер: Кристиан Де Вита, Мерли-Энн Ридли, Уилсон Дос Сантос.

    Описание

    Увлекательный мультсериал о юных супергероях. Три приятеля являются главными персонажами, они простые ребята, в руках которых оказались амулеты невероятной силы, они могут наделять своих обладателей чудесными способностями. Это звериные амулеты, кота, совы и ящерицы. Днем парни живут простыми жизнями, а по ночам они сражаются со злом, совершают подвиги и ради благих целей используют свои способности. При этом у каждого из ребят свой костюм и своя маска. Маски звериные, а костюмы сделаны из ночных пижам, зато каждого из героев можно легко отличить. Главных персонажей ждут удивительные тайны, настоящие приключения, некоторые злоключения и финальный позитив, все по-разному начинается, но всегда хорошо завершается. Многим зрителям данный французский мультсериал должен понравиться, интересных и увлекательных моментов в нем предостаточно.

    Возраст: 0+ (для любой зрительской аудитории)
    Дата мировой премьеры: 19 апреля 2019
    Дата российской премьеры: 15 сентября 2019
    Продолжительность: ~00: 11: 40 х серия
    Качество видео: SATRip
    Перевод: Дублированный
    Субтитры: отсутствуют
    Видео: Xvid, 704x400, ~1 200 kbps
    Аудио: MP3, 2 ch, 192 Kbps

    General
    Complete name : УзнавайкаГерои в масках 3 сезон любимого сериала1a Лунное безумие.avi
    Format : AVI
    Format/Info : Audio Video Interleave
    File size : 117 MiB
    Duration : 11 min 40 s
    Overall bit rate : 1 398 kb/s
    Writing library : VirtualDub build 40463/release
    Video
    ID : 0
    Format : MPEG-4 Visual
    Format profile : Advanced Simple@L5
    Format settings : BVOP2
    Format settings, BVOP : 2
    Format settings, QPel : No
    Format settings, GMC : No warppoints
    Format settings, Matrix : Default (H.263)
    Muxing mode : Packed bitstream
    Codec ID : XVID
    Codec ID/Hint : XviD
    Duration : 11 min 40 s
    Bit rate : 1 196 kb/s
    Width : 704 pixels
    Height : 400 pixels
    Display aspect ratio : 16: 9
    Frame rate : 25.000 FPS
    Color space : YUV
    Chroma subsampling : 4: 2: 0
    Bit depth : 8 bits
    Scan type : Progressive
    Compression mode : Lossy
    Bits/(Pixel*Frame) : 0.170
    Stream size : 99.9 MiB (86%)
    Writing library : XviD 67
    Audio
    ID : 1
    Format : MPEG Audio
    Format version : Version 1
    Format profile : Layer 3
    Format settings : Joint stereo
    Codec ID : 55
    Codec ID/Hint : MP3
    Duration : 11 min 40 s
    Bit rate mode : Constant
    Bit rate : 192 kb/s
    Channel(s) : 2 channels
    Sampling rate : 48.0 kHz
    Compression mode : Lossy
    Stream size : 16.0 MiB (14%)
    Alignment : Split across interleaves
    Interleave, duration : 40 ms (1.00 video frame)
    Interleave, preload duratio : 500 ms


    Онлайн видео Герои в масках



    Герои в масках/Pj masks (2019) SATRip (сезон 3, серии 1-4 из 26) [обновляемая]
    Рейтинг →
     (голосов: 1, оценка 3/5, голосовать можно 1 раз )

    Другие торренты по теме:

  • Герои в масках / Pj masks (2015) SATRip (Сезон 1, Серии 4 из 24) [обновляемая]
  • Герои в масках / Pj masks (2018) SATRip (Сезон 1, Серии 8 из ) [обновляемая]
  • Герои в масках / Pj masks (2018) WEBRip [H.264 / 1080p-LQ] (сезон 2, серии 1-26 из 26) [UKR]


    • Комментарии (0):

      Информация

      Информация

        Посетители, находящиеся в группе Гости, не могут оставлять комментарии в данной новости.

        ↓ Меню




        ↓ Опрос

        Вы добавили сайт в закладки?
        Да
        Нет


        Популярное

        Футурама / Futurama (1999-2013) DVDRip (7 Сезонов, 140 серии) скачать через торрент бесплатно

        (скачиваний: 31)
        Роберт Кийосаки | Богатый папа, бедный папа для подростков (2014) [PDF, FB2]

        (скачиваний: 29)
        Анна Рольская | Основы каллиграфии и леттеринга (2017) [PDF]

        (скачиваний: 18)
        Питер Браун | Дикий робот. Спасение дикого робота [2 книги] (2019) [PDF, FB2]

        (скачиваний: 17)
        Оранжевая корова (2018-2019) WEB-DLRip [H.264 / 720p-LQ] (сезон 1, серии 1-3 из 20)

        (скачиваний: 15)
        Александр Никонов | Физика на пальцах. Для детей и родителей, которые хотят объяснять детям (2016) [PDF]

        (скачиваний: 14)
        Пластилинки. Циферки (2018-2019) WEB-DLRip [H.264 / 720p-LQ] (сезон 1, серии 1-6 из 10)

        (скачиваний: 13)
        Эдвард Хэлловэлл, Джон Рэйти | Почему я отвлекаюсь. Как распознать синдром дефицита внимания у взрослых и детей и что с ним делать (2016) [FB2]

        (скачиваний: 13)
        Джоан Кэтлин Роулинг | Гарри Поттер. Полное собрание [7 книг] (2005-2007) [PDF, DJVU, FB2, EPUB]

        (скачиваний: 13)
        Гого: приключение с английским / GOGOs Adventures with English (1995) WEBRip (Сезон 1, серий 39 из 39) [EN] скачать через торрент бесплатно

        (скачиваний: 12)