.
Авторизация | Регистрация

torrentbox.xyz

» » История игрушек 4 / Toy Story 4 (2019) BDRip [H.264 / 1080p] [MVO] торрент скачать бесплатно


    История игрушек 4 / Toy Story 4 (2019) BDRip [H.264 / 1080p] [MVO] торрент скачать бесплатно

    Дата: 28-09-2019, 05:00 | .torrent скачали: 0

    История игрушек 4 / Toy Story 4 (2019) BDRip [H.264 / 1080p] [MVO]Производство: США/Pixar Animation Studios, Walt Disney Pictures
    Жанр: Фэнтези, Приключения, Комедия
    Режиссер: Джош Кули

    Описание

    Космический рейнджер Баз Лайтер, ковбой Вуди, собака Спиралька, тиранозавр Рекс и вся команда игрушек снова вместе, и они как никогда готовы к приключениям. С тех пор как Энди поступил в колледж, игрушки поселились в доме своей новой хозяйки Бонни. В свой первый день в школе Бонни смастерила себе из отходов новую игрушку Вилкинса, что положит начало череде событий, в которой найдется место и путешествиям с погонями, и знакомству с новыми игрушками, и встречам с некоторыми из старых друзей, и даже романтической истории.

    Возраст: 6+ (зрителям, достигшим 6 лет)
    Рейтинг MPAA: G (нет возрастных ограничений)
    Дата мировой премьеры: 11 июня 2019
    Дата российской премьеры: 20 июня 2019, WDSSPR 3D
    Релиз от: selezen
    Продолжительность: 01: 40: 03
    Качество видео: BDRip
    Перевод: Многоголосый профессиональный
    Субтитры: Английские
    Видео: AVC/H.264, 1920x804, ~13, 8 Mbps
    Аудио 1: AC3, 2 ch, 192 Kbps - Русский (MVO, HDRezka Studio)
    Аудио 2: DTS, 6 ch, 1509 Kbps - Английский

    General
    Unique ID : 255986439272455991745963050926224358492 (0xC09531E35722913AE5AF60B95C9ABC5C)
    Complete name : D: Video111Toy.Story.4.2019.BDRip.1080p.seleZen.mkv
    Format : Matroska
    Format version : Version 4
    File size : 10.8 GiB
    Duration : 1 h 40 min
    Overall bit rate : 15.5 Mb/s
    Movie name : Toy Story 4 2019 from селезень
    Encoded date : UTC 2019-09-26 13: 45: 45
    Writing application : mkvmerge v22.0.0 (\'At The End Of The World\') 64-bit
    Writing library : libebml v1.3.5 + libmatroska v1.4.8
    Video
    ID : 1
    Format : AVC
    Format/Info : Advanced Video Codec
    Format profile : High@L4.1
    Format settings : CABAC/5 Ref Frames
    Format settings, CABAC : Yes
    Format settings, Reference : 5 frames
    Codec ID : V_MPEG4/ISO/AVC
    Duration : 1 h 40 min
    Bit rate : 13.8 Mb/s
    Width : 1 920 pixels
    Height : 804 pixels
    Display aspect ratio : 2.40: 1
    Frame rate mode : Constant
    Frame rate : 23.976 (24000/1001) FPS
    Color space : YUV
    Chroma subsampling : 4: 2: 0
    Bit depth : 8 bits
    Scan type : Progressive
    Bits/(Pixel*Frame) : 0.372
    Stream size : 9.63 GiB (89%)
    Title : MTeam
    Writing library : x264 core 157 r2938 2b00a84 TnP@MTeam Mod
    Encoding settings : cabac=1/ref=5/deblock=1: -3: -3/analyse=0x3: 0x133/me=umh/subme=10/psy=1/psy_rd=1.05: 0.00/mixed_ref=1/me_range=32/chroma_me=1/trellis=2/8x8dct=1/cqm=0/deadzone=21, 11/fast_pskip=0/chroma_qp_offset=-2/threads=12/lookahead_threads=2/sliced_threads=0/nr=0/decimate=0/interlaced=0/bluray_compat=0/constrained_intra=0/bframes=8/b_pyramid=2/b_adapt=2/b_bias=0/direct=3/weightb=1/open_gop=0/weightp=2/keyint=250/keyint_min=24/scenecut=40/intra_refresh=0/rc_lookahead=250/rc=crf/mbtree=0/crf=16.1/qcomp=0.60/qpmin=0/qpmax=69/qpstep=4/vbv_maxrate=62500/vbv_bufsize=78125/crf_max=0.0/nal_hrd=none/filler=0/ip_ratio=1.30/pb_ratio=1.20/aq=3: 0.80
    Language : English
    Default : Yes
    Forced : No
    Color range : Limited
    Color primaries : BT.709
    Matrix coefficients : BT.709
    Audio #1
    ID : 2
    Format : AC-3
    Format/Info : Audio Coding 3
    Commercial name : Dolby Digital
    Codec ID : A_AC3
    Duration : 1 h 40 min
    Bit rate mode : Constant
    Bit rate : 192 kb/s
    Channel(s) : 2 channels
    Channel layout : L R
    Sampling rate : 48.0 kHz
    Frame rate : 31.250 FPS (1536 SPF)
    Bit depth : 16 bits
    Compression mode : Lossy
    Stream size : 137 MiB (1%)
    Title : MVO HDRezka Studio
    Language : Russian
    Service kind : Complete Main
    Default : Yes
    Forced : Yes
    Audio #2
    ID : 3
    Format : DTS
    Format/Info : Digital Theater Systems
    Codec ID : A_DTS
    Duration : 1 h 40 min
    Bit rate mode : Constant
    Bit rate : 1 509 kb/s
    Channel(s) : 6 channels
    Channel layout : C L R Ls Rs LFE
    Sampling rate : 48.0 kHz
    Frame rate : 93.750 FPS (512 SPF)
    Bit depth : 24 bits
    Compression mode : Lossy
    Stream size : 1.05 GiB (10%)
    Title : Original
    Language : English
    Default : No
    Forced : No
    Text
    ID : 4
    Format : UTF-8
    Codec ID : S_TEXT/UTF8
    Codec ID/Info : UTF-8 Plain Text
    Duration : 1 h 39 min
    Bit rate : 65 b/s
    Count of elements : 1806
    Stream size : 47.2 KiB (0%)
    Title : Full
    Language : English
    Default : No
    Forced : No
    Menu
    00: 00: 00.000 : en: Chapter 01
    00: 05: 39.798 : en: Chapter 02
    00: 11: 21.097 : en: Chapter 03
    00: 15: 06.239 : en: Chapter 04
    00: 19: 01.140 : en: Chapter 05
    00: 20: 52.042 : en: Chapter 06
    00: 22: 43.821 : en: Chapter 07
    00: 26: 11.111 : en: Chapter 08
    00: 27: 47.082 : en: Chapter 09
    00: 32: 11.846 : en: Chapter 10
    00: 36: 17.425 : en: Chapter 11
    00: 40: 34.640 : en: Chapter 12
    00: 42: 56.699 : en: Chapter 13
    00: 44: 26.872 : en: Chapter 14
    00: 46: 39.380 : en: Chapter 15
    00: 48: 06.175 : en: Chapter 16
    00: 49: 18.664 : en: Chapter 17
    00: 52: 25.809 : en: Chapter 18
    00: 53: 58.568 : en: Chapter 19
    00: 54: 34.479 : en: Chapter 20
    00: 59: 06.960 : en: Chapter 21
    01: 01: 30.645 : en: Chapter 22
    01: 04: 40.752 : en: Chapter 23
    01: 07: 25.249 : en: Chapter 24
    01: 09: 31.042 : en: Chapter 25
    01: 10: 54.834 : en: Chapter 26
    01: 12: 05.154 : en: Chapter 27
    01: 15: 03.040 : en: Chapter 28
    01: 17: 29.770 : en: Chapter 29
    01: 18: 04.846 : en: Chapter 30
    01: 19: 21.840 : en: Chapter 31
    01: 19: 48.116 : en: Chapter 32
    01: 22: 24.940 : en: Chapter 33
    01: 29: 00.293 : en: Chapter 34

    Скриншоты для ознакомления



    Все одноименные релизы в Клубе
    Время раздачи: 24/7 (до появления первых 3-5 скачавших)


    Онлайн видео История игрушек 4



    История игрушек 4/Toy Story 4 (2019) BDRip [H.264/1080p] [MVO]
    Рейтинг →
     (голосов: 1, оценка 5/5, голосовать можно 1 раз )

    Другие торренты по теме:

  • История игрушек: Время забыть / Toy Story That Time Forgot (2014) HDTVRip [H.264 / 720p-LQ] [EN] скачать через торрент бесплатно
  • История игрушек: Время забыть / Toy Story That Time Forgot (2014) HDTVRip [H.264 / 720p-LQ]
  • История игрушек: Время забыть / Toy Story That Time Forgot (2014) HDTVRip
  • История игрушек. Оловянные солдатики (2013) HDTVRip
  • История игрушек: Самозванец / Toy Story Toons: Small Fry (2011) BDRip [H.264 / 1080p]
  • История игрушек: Самозванец / Toy Story Toons: Small Fry (2011) BDRip [H.264 / 720p]
  • История игрушек: Самозванец / Toy Story Toons: Small Fry (2011) BDRemux [H.264 / 1080p]
  • История игрушек: Веселозавр Рекс / Toy Story Toons: Partysaurus Rex (2012) WEB-DL [H.264 / 1080p]


    • Комментарии (0):

      Информация

      Информация

        Посетители, находящиеся в группе Гости, не могут оставлять комментарии в данной новости.

        ↓ Меню




        ↓ Опрос

        Вы добавили сайт в закладки?
        Да
        Нет


        Популярное