.
Авторизация | Регистрация

torrentbox.xyz

» » История игрушек 4 / Toy Story 4 (2019) BDRip [H.264 / 720p-LQ] [MVO] [PR] торрент скачать бесплатно


    История игрушек 4 / Toy Story 4 (2019) BDRip [H.264 / 720p-LQ] [MVO] [PR] торрент скачать бесплатно

    Дата: 28-09-2019, 05:00 | .torrent скачали: 0

    История игрушек 4 / Toy Story 4 (2019) BDRip [H.264 / 720p-LQ] [MVO] [PR]Производство: США/Pixar Animation Studios, Walt Disney Pictures
    Жанр: Фэнтези, Приключения, Комедия
    Режиссер: Джош Кули

    Описание

    Космический рейнджер Баз Лайтер, ковбой Вуди, собака Спиралька, тиранозавр Рекс и вся команда игрушек снова вместе, и они как никогда готовы к приключениям. С тех пор как Энди поступил в колледж, игрушки поселились в доме своей новой хозяйки Бонни. В свой первый день в школе Бонни смастерила себе из отходов новую игрушку Вилкинса, что положит начало череде событий, в которой найдется место и путешествиям с погонями, и знакомству с новыми игрушками, и встречам с некоторыми из старых друзей, и даже романтической истории.

    Возраст: 6+ (зрителям, достигшим 6 лет)
    Рейтинг MPAA: G (нет возрастных ограничений)
    Дата мировой премьеры: 11 июня 2019
    Дата российской премьеры: 20 июня 2019, WDSSPR 3D
    Релиз от: selezen
    Продолжительность: 01: 40: 03
    Качество видео: BDRip
    Перевод: Многоголосый профессиональный
    Субтитры: Английские
    Видео: AVC/H.264, 1280x536, ~3178 Kbps
    Аудио 1: AC3, 2 ch, 192 Kbps - Русский (MVO, HDRezka Studio)
    Аудио 2: DTS, 6 ch, 1509 Kbps - Английский

    Общее
    Уникальный идентификатор : 105487241672363666843135405010904332796 (0x4F5C1A8F47630BA06B026071C54EB9FC)
    Полное имя : D: Toy.Story.4.2019.BDRip.720p.mkv
    Формат : Matroska
    Версия формата : Version 4
    Размер файла : 3, 41 Гбайт
    Продолжительность : 1 ч. 40 м.
    Общий поток : 4881 Кбит/сек
    Дата кодирования : UTC 2019-09-26 08: 17: 00
    Программа кодирования : mkvmerge v22.0.0 (\'At The End Of The World\') 64-bit
    Библиотека кодирования : libebml v1.3.5 + libmatroska v1.4.8
    Видео
    Идентификатор : 1
    Формат : AVC
    Формат/Информация : Advanced Video Codec
    Профиль формата : High@L4.1
    Настройки формата : CABAC/10 Ref Frames
    Параметр CABAC формата : Да
    Параметр RefFrames формата : 10 кадров
    Идентификатор кодека : V_MPEG4/ISO/AVC
    Продолжительность : 1 ч. 40 м.
    Битрейт : 3178 Кбит/сек
    Ширина : 1280 пикселей
    Высота : 536 пикселей
    Соотношение сторон : 2, 40: 1
    Режим частоты кадров : Постоянный
    Частота кадров : 23, 976 кадра/сек
    Цветовое пространство : YUV
    Субдискретизация насыщенности : 4: 2: 0
    Битовая глубина : 8 бит
    Тип развёртки : Прогрессивная
    Бит/(Пиксели*Кадры) : 0.193
    Размер потока : 2, 22 Гбайт (65%)
    Библиотека кодирования : x264 core 158 r2984 3759fcb
    Настройки программы : cabac=1/ref=10/deblock=1: 1: 1/analyse=0x3: 0x113/me=umh/subme=8/psy=1/psy_rd=0.40: 0.00/mixed_ref=1/me_range=16/chroma_me=1/trellis=1/8x8dct=1/cqm=0/deadzone=21, 11/fast_pskip=1/chroma_qp_offset=-2/threads=17/lookahead_threads=2/sliced_threads=0/nr=0/decimate=1/interlaced=0/bluray_compat=0/constrained_intra=0/bframes=5/b_pyramid=2/b_adapt=1/b_bias=0/direct=3/weightb=1/open_gop=0/weightp=2/keyint=250/keyint_min=23/scenecut=40/intra_refresh=0/rc_lookahead=50/rc=2pass/mbtree=1/bitrate=3178/ratetol=1.0/qcomp=0.60/qpmin=0/qpmax=69/qpstep=4/cplxblur=20.0/qblur=0.5/ip_ratio=1.40/aq=1: 0.60
    Язык : English
    Default : Да
    Forced : Нет
    Аудио #1
    Идентификатор : 2
    Формат : AC-3
    Формат/Информация : Audio Coding 3
    Коммерческое название : Dolby Digital
    Идентификатор кодека : A_AC3
    Продолжительность : 1 ч. 40 м.
    Вид битрейта : Постоянный
    Битрейт : 192 Кбит/сек
    Каналы : 2 канала
    Channel layout : L R
    Частота : 48, 0 КГц
    Частота кадров : 31, 250 кадров/сек (1536 SPF)
    Битовая глубина : 16 бит
    Метод сжатия : С потерями
    Размер потока : 137 Мбайт (4%)
    Заголовок : MVO HDRezka Studio
    Язык : Russian
    ServiceKind/String : Complete Main
    Default : Да
    Forced : Да
    Аудио #2
    Идентификатор : 3
    Формат : DTS
    Формат/Информация : Digital Theater Systems
    Идентификатор кодека : A_DTS
    Продолжительность : 1 ч. 40 м.
    Вид битрейта : Постоянный
    Битрейт : 1509 Кбит/сек
    Каналы : 6 каналов
    Channel layout : C L R Ls Rs LFE
    Частота : 48, 0 КГц
    Частота кадров : 93, 750 кадра/сек (512 SPF)
    Битовая глубина : 24 бит
    Метод сжатия : С потерями
    Размер потока : 1, 05 Гбайт (31%)
    Язык : English
    Default : Нет
    Forced : Нет
    Текст
    Идентификатор : 4
    Формат : UTF-8
    Идентификатор кодека : S_TEXT/UTF8
    Идентификатор кодека/Информация : UTF-8 Plain Text
    Продолжительность : 1 ч. 39 м.
    Битрейт : 65 бит/сек
    ElementCount : 1806
    Размер потока : 47, 2 Кбайт (0%)
    Заголовок : Full
    Язык : English
    Default : Нет
    Forced : Нет
    Меню
    00: 00: 00.000 : en: 00: 00: 00.000
    00: 05: 39.798 : en: 00: 05: 39.798
    00: 11: 21.097 : en: 00: 11: 21.097
    00: 15: 06.239 : en: 00: 15: 06.239
    00: 19: 01.140 : en: 00: 19: 01.140
    00: 20: 52.042 : en: 00: 20: 52.042
    00: 22: 43.821 : en: 00: 22: 43.821
    00: 26: 11.111 : en: 00: 26: 11.111
    00: 27: 47.082 : en: 00: 27: 47.082
    00: 32: 11.846 : en: 00: 32: 11.846
    00: 36: 17.425 : en: 00: 36: 17.425
    00: 40: 34.640 : en: 00: 40: 34.640
    00: 42: 56.699 : en: 00: 42: 56.699
    00: 44: 26.872 : en: 00: 44: 26.872
    00: 46: 39.380 : en: 00: 46: 39.380
    00: 48: 06.175 : en: 00: 48: 06.175
    00: 49: 18.664 : en: 00: 49: 18.664
    00: 52: 25.809 : en: 00: 52: 25.809
    00: 53: 58.568 : en: 00: 53: 58.568
    00: 54: 34.479 : en: 00: 54: 34.479
    00: 59: 06.960 : en: 00: 59: 06.960
    01: 01: 30.645 : en: 01: 01: 30.645
    01: 04: 40.752 : en: 01: 04: 40.752
    01: 07: 25.249 : en: 01: 07: 25.249
    01: 09: 31.042 : en: 01: 09: 31.042
    01: 10: 54.834 : en: 01: 10: 54.834
    01: 12: 05.154 : en: 01: 12: 05.154
    01: 15: 03.040 : en: 01: 15: 03.040
    01: 17: 29.770 : en: 01: 17: 29.770
    01: 18: 04.846 : en: 01: 18: 04.846
    01: 19: 21.840 : en: 01: 19: 21.840
    01: 19: 48.116 : en: 01: 19: 48.116
    01: 22: 24.940 : en: 01: 22: 24.940
    01: 29: 00.293 : en: 01: 29: 00.293

    Скриншоты для ознакомления



    Все одноименные релизы в Клубе
    Время раздачи: Мультитрекер (до появления первых 3-5 скачавших)


    Онлайн видео История игрушек 4



    История игрушек 4/Toy Story 4 (2019) BDRip [H.264/720p-LQ] [MVO] [PR]
    Рейтинг →
     (голосов: 1, оценка 5/5, голосовать можно 1 раз )

    Другие торренты по теме:

  • История игрушек 4 / Toy Story 4 (2019) BDRip [H.265 / 1080p-LQ] [10-bit]
  • История игрушек: Время забыть / Toy Story That Time Forgot (2014) HDTVRip [H.264 / 720p-LQ] [EN] скачать через торрент бесплатно
  • История игрушек: Время забыть / Toy Story That Time Forgot (2014) HDTVRip [H.264 / 720p-LQ]
  • История игрушек: Время забыть / Toy Story That Time Forgot (2014) HDTVRip
  • История игрушек. Оловянные солдатики (2013) HDTVRip
  • История игрушек: Самозванец / Toy Story Toons: Small Fry (2011) BDRip [H.264 / 1080p]
  • История игрушек: Самозванец / Toy Story Toons: Small Fry (2011) BDRip [H.264 / 720p]
  • История игрушек: Самозванец / Toy Story Toons: Small Fry (2011) BDRemux [H.264 / 1080p]


    • Комментарии (0):

      Информация

      Информация

        Посетители, находящиеся в группе Гости, не могут оставлять комментарии в данной новости.

        ↓ Меню




        ↓ Опрос

        Вы добавили сайт в закладки?
        Да
        Нет


        Популярное

        Футурама / Futurama (1999-2013) DVDRip (7 Сезонов, 140 серии) скачать через торрент бесплатно

        (скачиваний: 31)
        Роберт Кийосаки | Богатый папа, бедный папа для подростков (2014) [PDF, FB2]

        (скачиваний: 29)
        Анна Рольская | Основы каллиграфии и леттеринга (2017) [PDF]

        (скачиваний: 18)
        Питер Браун | Дикий робот. Спасение дикого робота [2 книги] (2019) [PDF, FB2]

        (скачиваний: 17)
        Оранжевая корова (2018-2019) WEB-DLRip [H.264 / 720p-LQ] (сезон 1, серии 1-3 из 20)

        (скачиваний: 15)
        Александр Никонов | Физика на пальцах. Для детей и родителей, которые хотят объяснять детям (2016) [PDF]

        (скачиваний: 14)
        Пластилинки. Циферки (2018-2019) WEB-DLRip [H.264 / 720p-LQ] (сезон 1, серии 1-6 из 10)

        (скачиваний: 13)
        Эдвард Хэлловэлл, Джон Рэйти | Почему я отвлекаюсь. Как распознать синдром дефицита внимания у взрослых и детей и что с ним делать (2016) [FB2]

        (скачиваний: 13)
        Джоан Кэтлин Роулинг | Гарри Поттер. Полное собрание [7 книг] (2005-2007) [PDF, DJVU, FB2, EPUB]

        (скачиваний: 13)
        Гого: приключение с английским / GOGOs Adventures with English (1995) WEBRip (Сезон 1, серий 39 из 39) [EN] скачать через торрент бесплатно

        (скачиваний: 12)