.
Авторизация | Регистрация

torrentbox.xyz

» » Астерикс: Земля Богов / Asterix: Le domaine des dieux (2014) BDRip [H.265 / 1080p-LQ] [10-bit] торрент скачать бесплатно


    Астерикс: Земля Богов / Asterix: Le domaine des dieux (2014) BDRip [H.265 / 1080p-LQ] [10-bit] торрент скачать бесплатно

    Дата: 30-09-2019, 05:00 | .torrent скачали: 0

    Астерикс: Земля Богов / Asterix: Le domaine des dieux (2014) BDRip [H.265 / 1080p-LQ] [10-bit]Производство: Франция, Бельгия/M6 Studio, Belvision, Grid Animation
    Жанр: Приключения, Фэнтези, Комедия
    Режиссер: Луи Клиши, Александр Астье

    Описание

    Астерикс и его лучший друг Обеликс продолжают свою многолетнюю борьбу с Цезарем, который хочет наконец-то расправиться с неукротимыми галлами. Вокруг деревни Астерикса Цезарь приказывает построить новый Рим — Землю Богов. В галльской деревне хаос и смятение. Но Астерикс и Обеликс не сдаются!

    Возраст: 12+ (зрителям, достигшим 12 лет)
    Рейтинг MPAA: этот продукт не был классифицирован
    Релиз от: Mr. Fox (HEVC-CLUB)
    Продолжительность: 01: 25: 34
    Качество видео: BDRip
    Перевод: Дублированный
    Субтитры: Русские, английские, французские
    Видео: HEVC/H.265, 1920x1080, ~4300 Kbps
    Аудио 1: AC3, 6 ch, 640 Kbps - Русский, дублированный
    Аудио 2: AC3, 6 ch, 640 Kbps - Французский

    Общее
    Уникальный идентификатор : 326143682894058172657037041450337983504 (0xF55CFD0EB7FF73FAE283BA900E805C10)
    Полное имя : R: Astérix Le domaine des dieux (2014) BDRip 1080p HEVC.mkv
    Формат : Matroska
    Версия формата : Version 4/Version 2
    Размер файла : 3, 34 Гбайт
    Продолжительность : 1 ч. 25 м.
    Общий поток : 5582 Кбит/сек
    Название фильма : Astérix: Le domaine des dieux (2014)
    Дата кодирования : UTC 2019-09-26 09: 52: 06
    Программа кодирования : mkvmerge v37.0.0 (\'Leave It\') 64-bit
    Библиотека кодирования : libebml v1.3.9 + libmatroska v1.5.2
    Обложка : Yes
    Attachments : cover.jpg
    Видео
    Идентификатор : 1
    Формат : HEVC
    Формат/Информация : High Efficiency Video Coding
    Профиль формата : Main10@L4.1@High
    Идентификатор кодека : V_MPEGH/ISO/HEVC
    Продолжительность : 1 ч. 25 м.
    Битрейт : 4300 Кбит/сек
    Ширина : 1920 пикселей
    Высота : 1080 пикселей
    Соотношение сторон : 16: 9
    Режим частоты кадров : Постоянный
    Частота кадров : 23, 976 (23976/1000) кадра/сек
    Частота кадров в оригинале : 23, 976 (24000/1001) кадра/сек
    Цветовое пространство : YUV
    Субдискретизация насыщенности : 4: 2: 0
    Битовая глубина : 10 бит
    Бит/(Пиксели*Кадры) : 0.086
    Размер потока : 2, 57 Гбайт (77%)
    Библиотека кодирования : x265 3.1.2+1-76650bab70f9: WindowsMSVC 192264 bit 10bit
    Настройки программы : cpuid=1111039/frame-threads=3/numa-pools=12/wpp/no-pmode/no-pme/no-psnr/no-ssim/log-level=2/input-csp=1/input-res=1920x1080/interlace=0/total-frames=123108/level-idc=41/high-tier=1/uhd-bd=0/ref=5/no-allow-non-conformance/no-repeat-t_heads/annexb/no-aud/no-hrd/info/hash=0/no-temporal-layers/open-gop/min-keyint=23/keyint=240/gop-lookahead=0/bframes=12/b-adapt=2/b-pyramid/bframe-bias=0/rc-lookahead=60/lookahead-slices=4/scenecut=40/radl=0/no-splice/no-intra-refresh/ctu=32/min-cu-size=8/rect/amp/max-tu-size=32/tu-inter-depth=4/tu-intra-depth=4/limit-tu=1/rdoq-level=2/dynamic-rd=0.00/no-ssim-rd/signhide/no-tskip/nr-intra=0/nr-inter=0/no-constrained-intra/no-strong-intra-smoothing/max-merge=4/limit-refs=2/limit-modes/me=3/subme=7/merange=57/temporal-mvp/weightp/weightb/no-analyze-src-pics/deblock=-3: -3/no-sao/no-sao-non-deblock/rd=6/no-early-skip/no-rskip/no-fast-intra/no-tskip-fast/no-cu-lossless/no-b-intra/no-splitrd-skip/rdpenalty=0/psy-rd=2.00/psy-rdoq=1.00/no-rd-refine/no-lossless/cbqpoffs=0/crqpoffs=0/rc=crf/crf=20.5/qcomp=0.75/qpstep=4/stats-write=0/stats-read=0/vbv-maxrate=50000/vbv-bufsize=50000/vbv-init=0.9/crf-max=0.0/crf-min=0.0/ipratio=1.40/pbratio=1.30/aq-mode=1/aq-strength=1.00/no-cutree/zone-count=0/no-strict-cbr/qg-size=32/no-rc-grain/qpmax=69/qpmin=0/no-const-vbv/sar=1/overscan=0/videoformat=5/range=0/colorprim=1/transfer=1/colormatrix=1/chromaloc=0/display-window=0cll=0, 0/min-luma=0/max-luma=1023/log2-max-poc-lsb=8/vui-timing-info/vui-hrd-info/slices=1/no-opt-qp-pps/no-opt-ref-list-length-pps/no-multi-pass-opt-rps/scenecut-bias=0.05/no-opt-cu-delta-qp/no-aq-motion/no-hdr/no-hdr-opt/no-dhdr10-opt/no-idr-recovery-sei/analysis-reuse-level=5/scale-factor=0/refine-intra=0/refine-inter=0/refine-mv=0/refine-ctu-distortion=0/no-limit-sao/ctu-info=0/no-lowpass-dct/refine-analysis-type=0/copy-pic=1/max-ausize-factor=1.0/no-dynamic-refine/no-single-sei/no-hevc-aq/no-svt/no-field/qp-adaptation-range=1.00
    Default : Да
    Forced : Нет
    Цветовой диапазон : Limited
    Основные цвета : BT.709
    Характеристики трансфера : BT.709
    Коэффициенты матрицы : BT.709
    Аудио #1
    Идентификатор : 2
    Формат : AC-3
    Формат/Информация : Audio Coding 3
    Идентификатор кодека : A_AC3
    Продолжительность : 1 ч. 25 м.
    Вид битрейта : Постоянный
    Битрейт : 640 Кбит/сек
    Каналы : 6 каналов
    Расположение каналов : Front: L C R, Side: L R, LFE
    Частота : 48, 0 КГц
    Частота кадров : 31, 250 кадров/сек (1536 SPF)
    Битовая глубина : 16 бит
    Метод сжатия : С потерями
    Размер потока : 392 Мбайт (11%)
    Заголовок : Дубляж - BD3D Rus
    Язык : Russian
    ServiceKind/String : Complete Main
    Default : Да
    Forced : Нет
    Аудио #2
    Идентификатор : 3
    Формат : AC-3
    Формат/Информация : Audio Coding 3
    Идентификатор кодека : A_AC3
    Продолжительность : 1 ч. 25 м.
    Вид битрейта : Постоянный
    Битрейт : 640 Кбит/сек
    Каналы : 6 каналов
    Расположение каналов : Front: L C R, Side: L R, LFE
    Частота : 48, 0 КГц
    Частота кадров : 31, 250 кадров/сек (1536 SPF)
    Битовая глубина : 16 бит
    Метод сжатия : С потерями
    Задержка видео : 24 мс.
    Размер потока : 391 Мбайт (11%)
    Язык : French
    ServiceKind/String : Complete Main
    Default : Нет
    Forced : Нет
    Текст #1
    Идентификатор : 4
    Формат : UTF-8
    Идентификатор кодека : S_TEXT/UTF8
    Идентификатор кодека/Информация : UTF-8 Plain Text
    Продолжительность : 1 ч. 18 м.
    Битрейт : 94 бит/сек
    ElementCount : 785
    Размер потока : 54, 3 Кбайт (0%)
    Язык : Russian
    Default : Нет
    Forced : Нет
    Текст #2
    Идентификатор : 5
    Формат : UTF-8
    Идентификатор кодека : S_TEXT/UTF8
    Идентификатор кодека/Информация : UTF-8 Plain Text
    Продолжительность : 1 ч. 24 м.
    Битрейт : 49 бит/сек
    ElementCount : 1075
    Размер потока : 30, 7 Кбайт (0%)
    Язык : English
    Default : Нет
    Forced : Нет
    Текст #3
    Идентификатор : 6
    Формат : UTF-8
    Идентификатор кодека : S_TEXT/UTF8
    Идентификатор кодека/Информация : UTF-8 Plain Text
    Продолжительность : 1 ч. 24 м.
    Битрейт : 66 бит/сек
    ElementCount : 1440
    Размер потока : 41, 4 Кбайт (0%)
    Язык : French
    Default : Нет
    Forced : Нет
    Меню
    00: 00: 00.000 : en: 00: 00: 00.000
    00: 09: 03.501 : en: 00: 09: 03.501
    00: 14: 37.043 : en: 00: 14: 37.043
    00: 22: 27.680 : en: 00: 22: 27.680
    00: 30: 26.908 : en: 00: 30: 26.908
    00: 36: 09.918 : en: 00: 36: 09.918
    00: 44: 59.447 : en: 00: 44: 59.447
    00: 51: 43.225 : en: 00: 51: 43.225
    00: 56: 12.244 : en: 00: 56: 12.244
    01: 04: 48.760 : en: 01: 04: 48.760
    01: 10: 20.174 : en: 01: 10: 20.174
    01: 20: 16.687 : en: 01: 20: 16.687


    Онлайн видео Астерикс: Земля Богов



    Астерикс: Земля Богов/Asterix: Le domaine des dieux (2014) BDRip [H.265/1080p-LQ] [10-bit]
    Рейтинг →
     (голосов: 1, оценка 3/5, голосовать можно 1 раз )

    Другие торренты по теме:

  • Астерикс: Земля Богов / Asterix Le domaine des dieux (2014) TS скачать через торрент бесплатно
  • Астерикс: Земля Богов / Asterix Le domaine des dieux (2014) WEB-DL [720p] скачать через торрент бесплатно
  • Астерикс: Земля Богов / Asterix Le domaine des dieux (2014) WEB-DL [H.264 / 1080p-LQ] скачать через торрент бесплатно
  • Астерикс: Земля Богов / Asterix Le domaine des dieux (2014) WEB-DLRip скачать через торрент бесплатно
  • Астерикс: Земля Богов / Astérix: Le domaine des dieux (2014) WEB-DL [720p] ATV скачать через торрент бесплатно
  • Астерикс: Земля Богов / Asterix Le domaine des dieux (2014) HDRip
  • Астерикс: Земля Богов / Asterix Le domaine des dieux (2014) Blu-ray 3D [1080p] [3D / 2D]
  • Астерикс: Земля Богов / Asterix Le domaine des dieux (2014) BDRip [1080p] 3D [Вертикальная анаморфная стереопара]


    • Комментарии (0):

      Информация

      Информация

        Посетители, находящиеся в группе Гости, не могут оставлять комментарии в данной новости.

        ↓ Меню




        ↓ Опрос

        Вы добавили сайт в закладки?
        Да
        Нет


        Популярное