.
Авторизация | Регистрация

torrentbox.xyz

» » Aragne no Mushikago | Aragne: Sign of Vermilion | Клетка с насекомыми [2018, Movie] BDRip 1080p raw торрент скачать бесплатно


    Aragne no Mushikago | Aragne: Sign of Vermilion | Клетка с насекомыми [2018, Movie] BDRip 1080p raw торрент скачать бесплатно

    Дата: 30-09-2019, 05:00 | .torrent скачали: 0

    Aragne no Mushikago | Aragne: Sign of Vermilion | Клетка с насекомыми [2018, Movie] BDRip 1080p rawЖанр: мистика, ужасы
    Тип: полнометражный фильм
    Продолжительность: 75 мин.
    Выпуск: 18.08.2018
    Автор оригинала: Сакамото Саку
    Режиссер: Сакамото Саку
    Ссылки: World-Art, ANN, AniDB, MyAnimeList

    Описание

    Фильм ​​рассказывает об огромном многоквартирном доме, известном как обитель духов. Восемнадцатилетняя студентка по имени Рин решает посетить это мистическое место. Когда Рин раскрывает правду об этом здании, она оказывается вовлечена в странные события. © shikimori
    Качество видео: BDRip
    Видео: AVC (High@L5), 1920x1080 (16: 9), ~24.000 fps, ~5930 kbps
    Аудио #1: DTS XLL, 6 ch, 48 kHz, 24 bit, ~3720 kbps |Звук: Японский
    Аудио #2: AC-3, 2 ch, 48 kHz, 16 bit, ~448 kbps |Звук: Японский (Гид по просмотру)
    Аудио #3: AC-3, 2 ch, 48 kHz, 16 bit, ~448 kbps |Звук: Японский (Интервью с сейю)
    Аудио #4: AC-3, 2 ch, 48 kHz, 16 bit, ~448 kbps |Звук: Японский (Комментарии режиссёра)
    Язык озвучки: Японский
    Субтитры: Русские
    Перевод: anrokled

    Скриншоты для ознакомления




    General
    Unique ID : 159372963894815861133729485305677136988 (0x77E61DC90D9958E8A7754FB577D4C45C)
    Complete name : Aragne no Mushikago (BD 1920x1080 x.264 Flac)Moozzi2 Aragne no Mushikago (BD 1920x1080 x.264 4Audio).mkv
    Format : Matroska
    Format version : Version 4
    File size : 5.64 GiB
    Duration : 1 h 13 min
    Overall bit rate mode : Variable
    Overall bit rate : 11.0 Mb/s
    Encoded date : UTC 2019-07-09 23: 32: 04
    Writing application : mkvmerge v28.2.0 (\'The Awakening\') 64-bit
    Writing library : libebml v1.3.6 + libmatroska v1.4.9
    Video
    ID : 1
    Format : AVC
    Format/Info : Advanced Video Codec
    Format profile : High@L5
    Format settings : CABAC/5 Ref Frames
    Format settings, CABAC : Yes
    Format settings, Reference : 5 frames
    Codec ID : V_MPEG4/ISO/AVC
    Duration : 1 h 13 min
    Bit rate : 5 930 kb/s
    Width : 1 920 pixels
    Height : 1 080 pixels
    Display aspect ratio : 16: 9
    Frame rate mode : Constant
    Frame rate : 24.000 FPS
    Color space : YUV
    Chroma subsampling : 4: 2: 0
    Bit depth : 8 bits
    Scan type : Progressive
    Bits/(Pixel*Frame) : 0.119
    Stream size : 3.04 GiB (54%)
    Title : Main Video
    Writing library : x264 core 157 r2935 545de2f
    Encoding settings : cabac=1/ref=5/deblock=1: 1: 1/analyse=0x3: 0x113/me=umh/subme=9/psy=1/psy_rd=1.00: 0.00/mixed_ref=1/me_range=32/chroma_me=1/trellis=1/8x8dct=1/cqm=0/deadzone=21, 11/fast_pskip=0/chroma_qp_offset=-2/threads=34/lookahead_threads=2/sliced_threads=0/nr=0/decimate=1/interlaced=0/bluray_compat=0/stitchable=1/constrained_intra=0/bframes=3/b_pyramid=2/b_adapt=2/b_bias=0/direct=1/weightb=1/open_gop=0/weightp=1/keyint=240/keyint_min=24/scenecut=40/intra_refresh=0/rc_lookahead=40/rc=crf/mbtree=1/crf=16.0/qcomp=0.65/qpmin=0/qpmax=69/qpstep=4/ip_ratio=1.40/aq=1: 1.00
    Language : Japanese
    Default : Yes
    Forced : No
    Audio #1
    ID : 2
    Format : DTS XLL
    Format/Info : Digital Theater Systems
    Commercial name : DTS-HD Master Audio
    Codec ID : A_DTS
    Duration : 1 h 13 min
    Bit rate mode : Variable
    Bit rate : 3 720 kb/s
    Channel(s) : 6 channels
    Channel layout : C L R Ls Rs LFE
    Sampling rate : 48.0 kHz
    Frame rate : 93.750 FPS (512 SPF)
    Bit depth : 24 bits
    Compression mode : Lossless
    Stream size : 1.91 GiB (34%)
    Title : Main Audio
    Language : Japanese
    Default : Yes
    Forced : No
    Audio #2
    ID : 3
    Format : AC-3
    Format/Info : Audio Coding 3
    Commercial name : Dolby Digital
    Codec ID : A_AC3
    Duration : 1 h 13 min
    Bit rate mode : Constant
    Bit rate : 448 kb/s
    Channel(s) : 2 channels
    Channel layout : L R
    Sampling rate : 48.0 kHz
    Frame rate : 31.250 FPS (1536 SPF)
    Bit depth : 16 bits
    Compression mode : Lossy
    Stream size : 235 MiB (4%)
    Title : Audio Guide
    Language : Japanese
    Service kind : Complete Main
    Default : No
    Forced : No
    Audio #3
    ID : 4
    Format : AC-3
    Format/Info : Audio Coding 3
    Commercial name : Dolby Digital
    Codec ID : A_AC3
    Duration : 1 h 13 min
    Bit rate mode : Constant
    Bit rate : 448 kb/s
    Channel(s) : 2 channels
    Channel layout : L R
    Sampling rate : 48.0 kHz
    Frame rate : 31.250 FPS (1536 SPF)
    Bit depth : 16 bits
    Compression mode : Lossy
    Stream size : 235 MiB (4%)
    Title : Cast Staff Commentary
    Language : Japanese
    Service kind : Complete Main
    Default : No
    Forced : No
    Audio #4
    ID : 5
    Format : AC-3
    Format/Info : Audio Coding 3
    Commercial name : Dolby Digital
    Codec ID : A_AC3
    Duration : 1 h 13 min
    Bit rate mode : Constant
    Bit rate : 448 kb/s
    Channel(s) : 2 channels
    Channel layout : L R
    Sampling rate : 48.0 kHz
    Frame rate : 31.250 FPS (1536 SPF)
    Bit depth : 16 bits
    Compression mode : Lossy
    Stream size : 235 MiB (4%)
    Title : Staff Commentary
    Language : Japanese
    Service kind : Complete Main
    Default : No
    Forced : No
    Время раздачи: круглосуточно


    Онлайн видео Aragne no Mushikago



    Aragne no Mushikago | Aragne: Sign of Vermilion | Клетка с насекомыми [2018, Movie] BDRip 1080p raw
    Рейтинг →
     (голосов: 1, оценка 3/5, голосовать можно 1 раз )

    Другие торренты по теме:



      Комментарии (0):

      Информация

      Информация

        Посетители, находящиеся в группе Гости, не могут оставлять комментарии в данной новости.

        ↓ Меню




        ↓ Опрос

        Вы добавили сайт в закладки?
        Да
        Нет


        Популярное