.
Авторизация | Регистрация

torrentbox.xyz

» » Астерикс и тайное зелье / Asterix: Le secret de la potion magique (2018) BDRip [H.265 / 1080p-LQ] [10-bit] торрент скачать бесплатно


    Астерикс и тайное зелье / Asterix: Le secret de la potion magique (2018) BDRip [H.265 / 1080p-LQ] [10-bit] торрент скачать бесплатно

    Дата: 1-10-2019, 05:00 | .torrent скачали: 0

    Астерикс и тайное зелье / Asterix: Le secret de la potion magique (2018) BDRip [H.265 / 1080p-LQ] [10-bit]Производство: Франция/M6 Studio, M6 Films, Les Editions Albert René
    Жанр: Фэнтези, Приключения, Комедия
    Режиссер: Александр Астье, Луи Клиши

    Описание

    Могучие галлы издревле черпали силу в секретном напитке, который готовил великий старец. Но пришла беда, откуда не ждали — почтенный друид свалился с дерева и сломал обе ноги. Теперь Астериксу и Обеликсу предстоит отправиться в опасное путешествие, чтобы отыскать нового друида, достойного постичь рецепт тайного зелья.

    Возраст: 6+ (зрителям, достигшим 6 лет)
    Рейтинг MPAA: этот продукт не был классифицирован
    Релиз от: Mr. Fox (HEVC-CLUB)
    Продолжительность: 01: 24: 55
    Качество видео: BDRip
    Перевод: Дублированный (iTunes)
    Субтитры: Русские
    Видео: HEVC/H.265, 1920x804, ~3206 Kbps
    Аудио 1: AC3, 6 ch, 384 Kbps - Русский, дублированный
    Аудио 2: AC3, 6 ch, 384 Kbps - Украинский, дублированный
    Аудио 3: AC3, 6 ch, 640 Kbps - Французский

    Общее
    Уникальный идентификатор : 183827544350104693291354480230815848967 (0x8A4BE5B0A636763E6D8A6813D3795A07)
    Полное имя : R: Astérix Le secret de la potion magique (2018) BDRip 1080p HEVC.mkv
    Формат : Matroska
    Версия формата : Version 4/Version 2
    Размер файла : 2, 74 Гбайт
    Продолжительность : 1 ч. 24 м.
    Общий поток : 4616 Кбит/сек
    Название фильма : Astérix: Le secret de la potion magique (2018)
    Дата кодирования : UTC 2019-09-27 17: 15: 43
    Программа кодирования : mkvmerge v37.0.0 (\'Leave It\') 64-bit
    Библиотека кодирования : libebml v1.3.9 + libmatroska v1.5.2
    Обложка : Yes
    Attachments : cover.jpg
    Видео
    Идентификатор : 1
    Формат : HEVC
    Формат/Информация : High Efficiency Video Coding
    Профиль формата : Main10@L4.1@High
    Идентификатор кодека : V_MPEGH/ISO/HEVC
    Продолжительность : 1 ч. 24 м.
    Битрейт : 3206 Кбит/сек
    Ширина : 1920 пикселей
    Высота : 804 пикселя
    Соотношение сторон : 2, 40: 1
    Режим частоты кадров : Постоянный
    Частота кадров : 24, 000 кадра/сек
    Цветовое пространство : YUV
    Субдискретизация насыщенности : 4: 2: 0
    Битовая глубина : 10 бит
    Бит/(Пиксели*Кадры) : 0.087
    Размер потока : 1, 90 Гбайт (69%)
    Библиотека кодирования : x265 3.1.2+1-76650bab70f9: WindowsMSVC 192264 bit 10bit
    Настройки программы : cpuid=1111039/frame-threads=3/numa-pools=12/wpp/no-pmode/no-pme/no-psnr/no-ssim/log-level=2/input-csp=1/input-res=1920x804/interlace=0/total-frames=122280/level-idc=41/high-tier=1/uhd-bd=0/ref=5/no-allow-non-conformance/no-repeat-t_heads/annexb/no-aud/no-hrd/info/hash=0/no-temporal-layers/open-gop/min-keyint=23/keyint=240/gop-lookahead=0/bframes=12/b-adapt=2/b-pyramid/bframe-bias=0/rc-lookahead=60/lookahead-slices=4/scenecut=40/radl=0/no-splice/no-intra-refresh/ctu=32/min-cu-size=8/rect/amp/max-tu-size=32/tu-inter-depth=4/tu-intra-depth=4/limit-tu=1/rdoq-level=2/dynamic-rd=0.00/no-ssim-rd/signhide/no-tskip/nr-intra=0/nr-inter=0/no-constrained-intra/no-strong-intra-smoothing/max-merge=4/limit-refs=2/limit-modes/me=3/subme=7/merange=57/temporal-mvp/weightp/weightb/no-analyze-src-pics/deblock=-3: -3/no-sao/no-sao-non-deblock/rd=6/no-early-skip/no-rskip/no-fast-intra/no-tskip-fast/no-cu-lossless/no-b-intra/no-splitrd-skip/rdpenalty=0/psy-rd=2.00/psy-rdoq=1.00/no-rd-refine/no-lossless/cbqpoffs=0/crqpoffs=0/rc=crf/crf=19.0/qcomp=0.75/qpstep=4/stats-write=0/stats-read=0/vbv-maxrate=50000/vbv-bufsize=50000/vbv-init=0.9/crf-max=0.0/crf-min=0.0/ipratio=1.40/pbratio=1.30/aq-mode=1/aq-strength=1.00/no-cutree/zone-count=0/no-strict-cbr/qg-size=32/no-rc-grain/qpmax=69/qpmin=0/no-const-vbv/sar=1/overscan=0/videoformat=5/range=0/colorprim=1/transfer=1/colormatrix=1/chromaloc=0/display-window=0cll=0, 0/min-luma=0/max-luma=1023/log2-max-poc-lsb=8/vui-timing-info/vui-hrd-info/slices=1/no-opt-qp-pps/no-opt-ref-list-length-pps/no-multi-pass-opt-rps/scenecut-bias=0.05/no-opt-cu-delta-qp/no-aq-motion/no-hdr/no-hdr-opt/no-dhdr10-opt/no-idr-recovery-sei/analysis-reuse-level=5/scale-factor=0/refine-intra=0/refine-inter=0/refine-mv=0/refine-ctu-distortion=0/no-limit-sao/ctu-info=0/no-lowpass-dct/refine-analysis-type=0/copy-pic=1/max-ausize-factor=1.0/no-dynamic-refine/no-single-sei/no-hevc-aq/no-svt/no-field/qp-adaptation-range=1.00
    Default : Да
    Forced : Нет
    Цветовой диапазон : Limited
    Основные цвета : BT.709
    Характеристики трансфера : BT.709
    Коэффициенты матрицы : BT.709
    Аудио #1
    Идентификатор : 2
    Формат : AC-3
    Формат/Информация : Audio Coding 3
    Идентификатор кодека : A_AC3
    Продолжительность : 1 ч. 24 м.
    Вид битрейта : Постоянный
    Битрейт : 384 Кбит/сек
    Каналы : 6 каналов
    Расположение каналов : Front: L C R, Side: L R, LFE
    Частота : 48, 0 КГц
    Частота кадров : 31, 250 кадров/сек (1536 SPF)
    Битовая глубина : 16 бит
    Метод сжатия : С потерями
    Размер потока : 233 Мбайт (8%)
    Заголовок : Дубляж (iTunes)
    Язык : Russian
    ServiceKind/String : Complete Main
    Default : Да
    Forced : Нет
    Аудио #2
    Идентификатор : 3
    Формат : AC-3
    Формат/Информация : Audio Coding 3
    Идентификатор кодека : A_AC3
    Продолжительность : 1 ч. 24 м.
    Вид битрейта : Постоянный
    Битрейт : 384 Кбит/сек
    Каналы : 6 каналов
    Расположение каналов : Front: L C R, Side: L R, LFE
    Частота : 48, 0 КГц
    Частота кадров : 31, 250 кадров/сек (1536 SPF)
    Битовая глубина : 16 бит
    Метод сжатия : С потерями
    Размер потока : 233 Мбайт (8%)
    Заголовок : Дубляж (iTunes)
    Язык : Ukrainian
    ServiceKind/String : Complete Main
    Default : Нет
    Forced : Нет
    Аудио #3
    Идентификатор : 4
    Формат : AC-3
    Формат/Информация : Audio Coding 3
    Идентификатор кодека : A_AC3
    Продолжительность : 1 ч. 24 м.
    Вид битрейта : Постоянный
    Битрейт : 640 Кбит/сек
    Каналы : 6 каналов
    Расположение каналов : Front: L C R, Side: L R, LFE
    Частота : 48, 0 КГц
    Частота кадров : 31, 250 кадров/сек (1536 SPF)
    Битовая глубина : 16 бит
    Метод сжатия : С потерями
    Размер потока : 389 Мбайт (14%)
    Заголовок : Original
    Язык : French
    ServiceKind/String : Complete Main
    Default : Нет
    Forced : Нет
    Текст
    Идентификатор : 5
    Формат : UTF-8
    Идентификатор кодека : S_TEXT/UTF8
    Идентификатор кодека/Информация : UTF-8 Plain Text
    Продолжительность : 1 ч. 17 м.
    Битрейт : 120 бит/сек
    ElementCount : 921
    Размер потока : 68, 6 Кбайт (0%)
    Заголовок : Полные
    Язык : Russian
    Default : Нет
    Forced : Нет
    Меню
    00: 00: 00.000 : fr: Глава 01
    00: 06: 16.042 : fr: Глава 02
    00: 15: 43.250 : fr: Глава 03
    00: 21: 45.167 : fr: Глава 04
    00: 28: 47.792 : fr: Глава 05
    00: 35: 00.000 : fr: Глава 06
    00: 42: 39.458 : fr: Глава 07
    00: 50: 30.333 : fr: Глава 08
    00: 57: 33.708 : fr: Глава 09
    01: 04: 05.458 : fr: Глава 10
    01: 13: 32.000 : fr: Глава 11
    01: 21: 07.333 : fr: Глава 12


    Онлайн видео Астерикс и тайное зелье



    Астерикс и тайное зелье/Asterix: Le secret de la potion magique (2018) BDRip [H.265/1080p-LQ] [10-bit]
    Рейтинг →
     (голосов: 1, оценка 4/5, голосовать можно 1 раз )

    Другие торренты по теме:

  • Астерикс и тайное зелье / Asterix: Le secret de la potion magique (2018) BDRip
  • Астерикс и тайное зелье / Asterix: Le secret de la potion magique (2018) BDRemux [H.264 / 1080p] [2D / 3D] [ISO]
  • Астерикс и тайное зелье / Asterix: Le secret de la potion magique (2018) WEB-DL [H.264 / 1080p-LQ]
  • Астерикс и тайное зелье / Asterix: Le secret de la potion magique (2018) BDRip [H.264 / 720p] [PR]
  • Астерикс и тайное зелье / Asterix: Le secret de la potion magique (2018) BDRip [H.264 / 1080p] [PR]
  • Астерикс и тайное зелье / Asterix: Le secret de la potion magique (2018) BDRemux [H.264 / 1080p]
  • Астерикс и тайное зелье / Asterix: Le secret de la potion magique (2018) BDRip [H.264 / 1080p-LQ] [hand made 16:9]
  • Астерикс и тайное зелье / Asterix: Le secret de la potion magique (2018) BDRip [720p] ATV


    • Комментарии (0):

      Информация

      Информация

        Посетители, находящиеся в группе Гости, не могут оставлять комментарии в данной новости.

        ↓ Меню




        ↓ Опрос

        Вы добавили сайт в закладки?
        Да
        Нет


        Популярное

        Футурама / Futurama (1999-2013) DVDRip (7 Сезонов, 140 серии) скачать через торрент бесплатно

        (скачиваний: 31)
        Роберт Кийосаки | Богатый папа, бедный папа для подростков (2014) [PDF, FB2]

        (скачиваний: 29)
        Анна Рольская | Основы каллиграфии и леттеринга (2017) [PDF]

        (скачиваний: 18)
        Питер Браун | Дикий робот. Спасение дикого робота [2 книги] (2019) [PDF, FB2]

        (скачиваний: 17)
        Оранжевая корова (2018-2019) WEB-DLRip [H.264 / 720p-LQ] (сезон 1, серии 1-3 из 20)

        (скачиваний: 15)
        Александр Никонов | Физика на пальцах. Для детей и родителей, которые хотят объяснять детям (2016) [PDF]

        (скачиваний: 14)
        Пластилинки. Циферки (2018-2019) WEB-DLRip [H.264 / 720p-LQ] (сезон 1, серии 1-6 из 10)

        (скачиваний: 13)
        Эдвард Хэлловэлл, Джон Рэйти | Почему я отвлекаюсь. Как распознать синдром дефицита внимания у взрослых и детей и что с ним делать (2016) [FB2]

        (скачиваний: 13)
        Джоан Кэтлин Роулинг | Гарри Поттер. Полное собрание [7 книг] (2005-2007) [PDF, DJVU, FB2, EPUB]

        (скачиваний: 13)
        Гого: приключение с английским / GOGOs Adventures with English (1995) WEBRip (Сезон 1, серий 39 из 39) [EN] скачать через торрент бесплатно

        (скачиваний: 12)