.
Авторизация | Регистрация
torrentbox.xyz
» » Счастливые люди: Другая жизнь. Алтай (2017) WEBRip [VP9 / 1080p] (cерии 1-4) торрент скачать бесплатно


    Счастливые люди: Другая жизнь. Алтай (2017) WEBRip [VP9 / 1080p] (cерии 1-4) торрент скачать бесплатно

    Дата: 19-01-2019, 05:00 | .torrent скачали: 441

    Счастливые люди: Другая жизнь. Алтай (2017) WEBRip [VP9 / 1080p] (cерии 1-4)Производство: Россия
    Жанр: Документальный, природа, исследование, история
    Режиссер: Дмитрий Васюков

    Описание

    Фильм продолжит главную тему цикла Счастливые люди - о вере человека в себя и о великом навыке выживания. Это будет фильм о сильных, вольных духом людях, которые существуют в гармонии с величественной и суровой природой. Первая серия расскажет о русских, чьи предки пришли на Алтай больше трёх веков назад, вторая – о коренном населении этого края, алтайцах, третья - о кочевниках, приезжих, спуске по реке Аргут, золотом седле, а четвёртая - о чуйском тракте, сборе кедровой шишки и охоте.

    Продолжительность: 4x ~00: 52: 00
    Качество видео: WEBRip
    Язык озвучки: Русский
    Субтитры: отсутствуют
    Видео: VP9, 1920x1080, ~1610 Kbps
    Аудио: Vorbis, 2 ch, 128 Kbps
    Общее
    Уникальный идентификатор : 24868455867579263050612434318785107082 (0x12B57D89B6E0266C9CF3419BA659D48A)
    Полное имя : F: КИНОСЧАСТЛИВЫЕ ЛЮДИ (АЛТАЙ)3 СЕРИЯ.mkv
    Формат : Matroska
    Версия формата : Version 4
    Размер файла : 665 Мбайт
    Продолжительность : 52 м. 24 с.
    Режим общего битрейта : Переменный
    Общий поток : 1773 Кбит/сек
    Программа кодирования : Lavf56.40.101
    Библиотека кодирования : Lavf56.40.101
    Видео
    Идентификатор : 1
    Формат : VP9
    Идентификатор кодека : V_VP9
    Продолжительность : 52 м. 24 с.
    Битрейт : 1610 Кбит/сек
    Ширина : 1920 пикселей
    Высота : 1080 пикселей
    Соотношение сторон : 16: 9
    Режим частоты кадров : Постоянный
    Частота кадров : 25, 000 кадров/сек
    Бит/(Пиксели*Кадры) : 0.031
    Размер потока : 604 Мбайт (91%)
    Default : Да
    Forced : Нет
    DURATION : 00: 52: 24, 280000000
    Аудио
    Идентификатор : 2
    Формат : Vorbis
    Параметр Floor формата : 1
    Идентификатор кодека : A_VORBIS
    Продолжительность : 52 м. 24 с.
    Вид битрейта : Переменный
    Битрейт : 128 Кбит/сек
    Каналы : 2 канала
    Частота : 44, 1 КГц
    Метод сжатия : С потерями
    Размер потока : 48, 0 Мбайт (7%)
    Программа кодирования : Google
    Default : Да
    Forced : Нет
    DURATION : 00: 52: 24, 305000000

    Скриншоты для ознакомления



    Все одноименные релизы в Клубе
    Время раздачи: с 18: 00 до 23: 00 (до появления первых 3-5 скачавших)

    Счастливые люди: Другая жизнь. Алтай (2017) WEBRip [VP9/1080p] (cерии 1-4)
    Рейтинг →
     (голосов: 1, оценка 4/5, голосовать можно 1 раз )

    Другие торренты по теме:



      Комментарии (0):

      Информация

      Информация

        Посетители, находящиеся в группе Гости, не могут оставлять комментарии в данной новости.

        ↓ Меню




        ↓ Опрос

        Вы добавили сайт в закладки?
        Да
        Нет


        Популярное

        Счастливые люди: Другая жизнь. Алтай (2017) WEBRip [VP9 / 1080p] (cерии 1-4)

        (скачиваний: 66)
        Сборник выпусков киножурнала "Фитиль" (1960-2004) TVRip (серий 854)

        (скачиваний: 59)
        Михаил Задорнов. Лучшее - сборник лучших эстрадных номеров Михаила Задорнова за 30 лет (1984-2014) WEBRip скачать через торрент бесплатно

        (скачиваний: 51)
        Адская кухня с Константином Ивлевым (2017) WEB-DLRip [H.264 / 720p-LQ] (сезон 1, выпуски 1-15 из 15 + Спецвыпуск)

        (скачиваний: 40)
        Нереальная история (2011-2013) SATRip [1-3 сезон: 1-60 выпуск из 60] скачать через торрент бесплатно

        (скачиваний: 38)
        Битва экстрасенсов (2015.12.26) SATRip (сезон 16, выпуски 1-15 из 15) скачать через торрент бесплатно

        (скачиваний: 36)
        Военная приёмка. От Т-50 к СУ-57 (18.11.2018) WEB-DLRip [H.264 / 1080p-LQ] (серии 1-3 из 3) [PR]

        (скачиваний: 35)
        Рыбалка в России (2011-2013) TVRip [H.264] скачать через торрент бесплатно

        (скачиваний: 31)
        Русские евреи (2016-2017) HDTVRip [H.264 / 1080p-LQ]

        (скачиваний: 28)
        Великая война (2010-2012) WEBRip [H.264 / 720p-LQ] (серии 1-18 из 18)

        (скачиваний: 24)